Winchester - La Vedova Winchester (2018).720p.H264.Italian.English.Ac3-5.1.sub.ita.MIRCrew

Download via magnet link
Added June 13 2018 in Movies > Horror
Verified
Size : 1.92 GB
Seeds : 1 , Peers : 3 updated 2 months ago (new update strongly recommended) Refresh Leechers
Hash code : 762783abe61589af39bc3363bfe8f106a9173963
Winchester - La Vedova Winchester (2018).720p.H264.Italian.English.Ac3-5.1.sub.ita.MIRCrew



SCREENSHOT

NO FOUND ONLY ORIGINAL RELEASE



SCREENSHOT



My release is always in double track audio italian and Original audio

for select it use VLC or dvd player home

not use wmp



La Vedova Winchester - Winchester (2018)



Quality MIRCrew on HD 720p da 1,9 gb



SCREENSHOT



SCREENSHOT



SCREENSHOT



GENERE: Horror, Thriller

ANNO: 2018

REGIA: Michael Spierig, Peter Spierig

PAESE: USA, Australia

DURATA: 99 Min



SCREENSHOT



Helen Mirren, Jason Clarke, Sarah Snook, Angus Sampson, Laura Brent, Tyler Coppin



SCREENSHOT



Siamo da sempre grandi amanti delle storie di fantasmi da leggere la sera tardi, alla luce della lampada, lasciandosi piacevolmente suggestionare, fino a sentirsi costretti ad alzare gli occhi dal libro, percorsi da un impercettibile brivido, per scrutare nelle ombre della stanza, dove gli oggetti consueti assumono forme inquietanti.............



SCREENSHOT



Ensconced in her sprawling California mansion, eccentric firearm heiress Sarah Winchester believes she is haunted by the souls of people killed by the Winchester repeating rifle.



SCREENSHOT



SCREENSHOT



SCREENSHOT



SCREENSHOT SCREENSHOT SCREENSHOT



SCREENSHOT



[spoiler]

General

Unique ID : 215383332358180461534430986479859322020 (0xA209522889980F95BD4FF66F37BACCA4)

Complete name : La Vedova Winchester - Winchester (2018).720p.H264.ita.eng.sub.ita-MIRCrewLa Vedova Winchester - Winchester (2018).720p.H264.ita.eng.sub.ita-MIRCrew.mkv

Format : Matroska

Format version : Version 2

File size : 1.92 GiB

Duration : 1h 39mn

Overall bit rate : 2 769 Kbps

Movie name : MIRCrew

Encoded date : UTC 2018-06-10 15:03:20

Writing application : mkvmerge v5.4.0 ('Piper') built on Mar 10 2012 13:34:39

Writing library : Lavf54.63.100



Video

ID : 1

Format : AVC

Format/Info : Advanced Video Codec

Format profile : [email protected]

Format settings, CABAC : Yes

Format settings, ReFrames : 2 frames

Codec ID : V_MPEG4/ISO/AVC

Duration : 1h 39mn

Bit rate : 1 900 Kbps

Width : 1 280 pixels

Height : 528 pixels

Display aspect ratio : 2.40:1

Frame rate mode : Variable

Frame rate : 24.000 fps

Color space : YUV

Chroma subsampling : 4:2:0

Bit depth : 8 bits

Scan type : Progressive

Bits/(Pixel*Frame) : 0.117

Stream size : 1.26 GiB (66%)

Writing library : x264 core 130 r2273

Encoding settings : cabac=1 / ref=2 / deblock=1:0:0 / analyse=0x1:0x131 / me=hex / subme=7 / psy=1 / psy_rd=1.00:0.00 / mixed_ref=0 / me_range=16 / chroma_me=1 / trellis=1 / 8x8dct=0 / cqm=0 / deadzone=21,11 / fast_pskip=1 / chroma_qp_offset=-2 / threads=3 / lookahead_threads=1 / sliced_threads=0 / nr=0 / decimate=1 / interlaced=0 / bluray_compat=0 / constrained_intra=0 / bframes=3 / b_pyramid=0 / b_adapt=1 / b_bias=0 / direct=3 / weightb=1 / open_gop=0 / weightp=2 / keyint=240 / keyint_min=24 / scenecut=40 / intra_refresh=0 / rc_lookahead=40 / rc=abr / mbtree=1 / bitrate=1900 / ratetol=1.0 / qcomp=0.60 / qpmin=10 / qpmax=69 / qpstep=4 / vbv_maxrate=24000 / vbv_bufsize=24000 / nal_hrd=none / ip_ratio=1.40 / aq=1:1.00

Language : Italian

Default : Yes

Forced : No

DURATION : 01:39:28.584000000

NUMBER_OF_FRAMES : 143246

NUMBER_OF_BYTES : 6575493096

_STATISTICS_WRITING_APP : mkvmerge v9.7.1 ('Pandemonium') 64bit

_STATISTICS_WRITING_DATE_UTC : 2018-06-07 17:09:41

_STATISTICS_TAGS : BPS DURATION NUMBER_OF_FRAMES NUMBER_OF_BYTES



Audio #1

ID : 2

Format : AC-3

Format/Info : Audio Coding 3

Mode extension : CM (complete main)

Codec ID : A_AC3

Duration : 1h 39mn

Bit rate mode : Constant

Bit rate : 448 Kbps

Channel(s) : 6 channels

Channel positions : Front: L C R, Side: L R, LFE

Sampling rate : 48.0 KHz

Bit depth : 16 bits

Compression mode : Lossy

Delay relative to video : -5ms

Stream size : 319 MiB (16%)

Title : ita Ac3 5.1

Language : Italian

Default : No

Forced : No

DURATION : 01:39:28.608000000

NUMBER_OF_FRAMES : 186519

NUMBER_OF_BYTES : 477488640

_STATISTICS_WRITING_APP : mkvmerge v9.7.1 ('Pandemonium') 64bit

_STATISTICS_WRITING_DATE_UTC : 2018-06-07 17:09:41

_STATISTICS_TAGS : BPS DURATION NUMBER_OF_FRAMES NUMBER_OF_BYTES



Audio #2

ID : 3

Format : AC-3

Format/Info : Audio Coding 3

Mode extension : CM (complete main)

Codec ID : A_AC3

Duration : 1h 39mn

Bit rate mode : Constant

Bit rate : 448 Kbps

Channel(s) : 6 channels

Channel positions : Front: L C R, Side: L R, LFE

Sampling rate : 48.0 KHz

Bit depth : 16 bits

Compression mode : Lossy

Delay relative to video : -5ms

Stream size : 319 MiB (16%)

Title : eng Ac3 5.1

Language : English

Default : No

Forced : No

DURATION : 01:39:28.608000000

NUMBER_OF_FRAMES : 559557

NUMBER_OF_BYTES : 1125828856

_STATISTICS_WRITING_APP : mkvmerge v9.7.1 ('Pandemonium') 64bit

_STATISTICS_WRITING_DATE_UTC : 2018-06-07 17:09:41

_STATISTICS_TAGS : BPS DURATION NUMBER_OF_FRAMES NUMBER_OF_BYTES



Menu

00:00:00.000 : :(01)00:00:00:000

00:09:55.583 : :(02)00:09:55:583

00:16:01.666 : :(03)00:16:01:666

00:24:42.750 : :(04)00:24:42:750

00:34:23.541 : :(05)00:34:23:541

00:41:02.875 : :(06)00:41:02:875

00:49:54.000 : :(07)00:49:54:000

00:58:50.250 : :(08)00:58:50:250

01:06:07.291 : :(09)01:06:07:291

01:15:20.208 : :(10)01:15:20:208

01:23:08.500 : :(11)01:23:08:500

01:30:44.041 : :(12)01:30:44:041





[/spoiler]


Internal Files
La Vedova Winchester - Winchester (2018).720p.H264.ita.eng.sub.ita-MIRCrew.ita.srt   66.38 KB

La Vedova Winchester - Winchester (2018).720p.H264.ita.eng.sub.ita-MIRCrew.mkv   1.92 GB

La Vedova Winchester - Winchester (2018).720p.H264.ita.eng.sub.ita-MIRCrew.srt   306 Byte

1. udp://9.rarbg.com:2710/announce

2. udp://tracker.opentrackr.org:1337/announce

3. udp://tracker.pirateparty.gr:6969/announce

4. udp://tracker.leechers-paradise.org:6969/announce

5. udp://tracker.coppersurfer.tk:6969/announce

6. udp://tracker.zer0day.to:1337/announce

TOPlist