Darc 2018.H264.italian.english.Ac3-5.1.sub.ita.eng.MIRCrew

Download via magnet link
Added May 15 2018 in Movies > Thriller
Verified
Size : 1.4 GB
Seeds : 3 , Peers : 14 updated 3 months ago (new update strongly recommended) Refresh Leechers
Hash code : 09e1303e93fc7e80752a7496376371149d1a1f1a
Darc 2018.H264.italian.english.Ac3-5.1.sub.ita.eng.MIRCrew



SCREENSHOT

NO FOUND ONLY ORIGINAL RELEASE



SCREENSHOT





My release is always in double track audio italian and Original audio

for select it use VLC or dvd player home

not use wmp



Darc 2018



SCREENSHOT



SCREENSHOT



SCREENSHOT



Titolo Originale: DARC

Regia: Julius R. Nasso

Durata: h 1.37

Nazionalità: USA 2018

Genere: thriller



SCREENSHOT



Tony Schiena, Armand Assante, Kippei Shîna, Tetsu Watanabe



SCREENSHOT



Per interrompere un traffico globale di esseri umani, un agente dell'Interpool ingaggia un criminale esperto della yakuza.



SCREENSHOT



To bring down a global human trafficking ring, an Interpol agent recruits the help of a brutal criminal with inside knowledge of the yakuza. .



SCREENSHOT



SCREENSHOT

SCREENSHOT

SCREENSHOT







SCREENSHOT



[spoiler]

General

Unique ID : 273182135824669098739870359722540962350 (0xCD84F72F4F4A30F17A472EA614C8922E)

Complete name : Darc 2018.H264.ita.eng.sub.ita.eng - MIRCrewDarc 2018.H264.ita.eng.sub.ita.eng - MIRCrew.mkv

Format : Matroska

Format version : Version 2

File size : 1.40 GiB

Duration : 1h 37mn

Overall bit rate : 2 058 Kbps

Movie name : MIRCrew

Encoded date : UTC 2018-05-14 17:39:06

Writing application : Lavf54.63.100

Writing library : Lavf54.63.100

COPYRIGHT : robbyrs - Il Corsaronero



Video

ID : 1

Format : AVC

Format/Info : Advanced Video Codec

Format profile : [email protected]

Format settings, CABAC : Yes

Format settings, ReFrames : 2 frames

Codec ID : V_MPEG4/ISO/AVC

Duration : 1h 37mn

Bit rate : 1 300 Kbps

Width : 720 pixels

Height : 300 pixels

Display aspect ratio : 2.40:1

Frame rate mode : Variable

Frame rate : 23.976 fps

Color space : YUV

Chroma subsampling : 4:2:0

Bit depth : 8 bits

Scan type : Progressive

Bits/(Pixel*Frame) : 0.252

Stream size : 873 MiB (61%)

Writing library : x264 core 130 r2273

Encoding settings : cabac=1 / ref=2 / deblock=1:0:0 / analyse=0x1:0x131 / me=hex / subme=7 / psy=1 / psy_rd=1.00:0.00 / mixed_ref=0 / me_range=16 / chroma_me=1 / trellis=1 / 8x8dct=0 / cqm=0 / deadzone=21,11 / fast_pskip=1 / chroma_qp_offset=-2 / threads=3 / lookahead_threads=1 / sliced_threads=0 / nr=0 / decimate=1 / interlaced=0 / bluray_compat=0 / constrained_intra=0 / bframes=3 / b_pyramid=0 / b_adapt=1 / b_bias=0 / direct=3 / weightb=1 / open_gop=0 / weightp=2 / keyint=230 / keyint_min=23 / scenecut=40 / intra_refresh=0 / rc_lookahead=40 / rc=abr / mbtree=1 / bitrate=1300 / ratetol=1.0 / qcomp=0.60 / qpmin=10 / qpmax=69 / qpstep=4 / vbv_maxrate=24000 / vbv_bufsize=24000 / nal_hrd=none / ip_ratio=1.40 / aq=1:1.00

Language : Italian

Default : Yes

Forced : No



Audio #1

ID : 2

Format : AC-3

Format/Info : Audio Coding 3

Mode extension : CM (complete main)

Codec ID : A_AC3

Duration : 1h 37mn

Bit rate mode : Constant

Bit rate : 384 Kbps

Channel(s) : 6 channels

Channel positions : Front: L C R, Side: L R, LFE

Sampling rate : 48.0 KHz

Bit depth : 16 bits

Compression mode : Lossy

Delay relative to video : 1mn 5s

Stream size : 268 MiB (19%)

Default : Yes

Forced : No



Audio #2

ID : 3

Format : AC-3

Format/Info : Audio Coding 3

Mode extension : CM (complete main)

Codec ID : A_AC3

Duration : 1h 37mn

Bit rate mode : Constant

Bit rate : 384 Kbps

Channel(s) : 6 channels

Channel positions : Front: L C R, Side: L R, LFE

Sampling rate : 48.0 KHz

Bit depth : 16 bits

Compression mode : Lossy

Delay relative to video : 1mn 5s

Stream size : 268 MiB (19%)

Default : Yes

Forced : No









[/spoiler]


Internal Files
Darc (2018).H264.ita.eng.sub.ita.eng - MIRCrew.eng.srt   51.43 KB

Darc (2018).H264.ita.eng.sub.ita.eng - MIRCrew.ita.srt   51.58 KB

Darc (2018).H264.ita.eng.sub.ita.eng - MIRCrew.mkv   1.4 GB

Darc (2018).H264.ita.eng.sub.ita.eng - MIRCrew.srt   11.17 KB

MIRCrew-ilCorSaRoNeRo.txt   53 Byte

MIRCrew.jpg   42.42 KB

1. udp://9.rarbg.com:2710/announce

2. udp://tracker.opentrackr.org:1337/announce

3. udp://tracker.pirateparty.gr:6969/announce

4. udp://tracker.leechers-paradise.org:6969/announce

5. udp://tracker.coppersurfer.tk:6969/announce

6. udp://tracker.zer0day.to:1337/announce

No related torrents found!

TOPlist