Breakaway 2011 Hindi 720p WEB-DL x264 [MW]

Download via magnet link
Added May 15 2018 in Movies > Comedy
Verified
Size : 1.1 GB
Seeds : 1 , Peers : 9 updated 3 months ago (new update strongly recommended) Refresh Leechers
Hash code : 1ac4291fc8c654effc5c85d07aabdbdea42b6728


SCREENSHOT





General

Format : Matroska

Format version : Version 4 / Version 2

File size : 1.10 GiB

Duration : 1 h 37 min

Overall bit rate : 1 613 kb/s



Video

ID : 1

Format : AVC

Format/Info : Advanced Video Codec

Format profile : [email protected]

Format settings : CABAC / 4 Ref Frames

Format settings, CABAC : Yes

Format settings, RefFrames : 4 frames

Codec ID : V_MPEG4/ISO/AVC

Duration : 1 h 37 min

Bit rate : 1 400 kb/s

Width : 1 280 pixels

Height : 544 pixels

Display aspect ratio : 2.35:1

Frame rate mode : Constant

Frame rate : 30.000 FPS

Color space : YUV

Chroma subsampling : 4:2:0

Bit depth : 8 bits

Scan type : Progressive

Bits/(Pixel*Frame) : 0.067

Stream size : 969 MiB (86%)

Writing library : x264 core 155 r2893 b00bcaf

Default : Yes

Forced : No



Audio

ID : 2

Format : AAC

Format/Info : Advanced Audio Codec

Format profile : LC

Codec ID : A_AAC-2

Duration : 1 h 37 min

Bit rate : 224 kb/s

Channel(s) : 2 channels

Channel positions : Front: L R

Sampling rate : 48.0 kHz

Frame rate : 46.875 FPS (1024 SPF)

Compression mode : Lossy

Stream size : 157 MiB (14%)

Language : Hindi

Default : Yes

Forced : No











https://pichub.site/image/MhKD8

https://pichub.site/image/MhGYh

https://pichub.site/image/Mhmn5

https://pichub.site/image/MhU2r

https://pichub.site/image/MhNtj

https://pichub.site/image/Mhvjk



Internal Files
Breakaway 2011 Hindi 720p WEB-DL x264 [MW].mkv   1.1 GB

1. udp://9.rarbg.com:2710/announce

2. udp://tracker.opentrackr.org:1337/announce

3. udp://tracker.pirateparty.gr:6969/announce

4. udp://tracker.leechers-paradise.org:6969/announce

5. udp://tracker.coppersurfer.tk:6969/announce

6. udp://tracker.zer0day.to:1337/announce

No related torrents found!

TOPlist