Early Man 2018 720p WEBRip x264 [MW]

Download via magnet link
Added May 12 2018 in Movies > Animation
Verified
Size : 720.57 MB
Seeds : 2 , Peers : 3 updated 3 months ago (new update strongly recommended) Refresh Leechers
Hash code : d9b76d61363bf946a87efc6d12abf1adbdb5952b


SCREENSHOT





General

Format : Matroska

Format version : Version 4 / Version 2

File size : 721 MiB

Duration : 1 h 24 min

Overall bit rate : 1 185 kb/s



Video

ID : 1

Format : AVC

Format/Info : Advanced Video Codec

Format profile : [email protected]

Format settings : CABAC / 4 Ref Frames

Format settings, CABAC : Yes

Format settings, RefFrames : 4 frames

Codec ID : V_MPEG4/ISO/AVC

Duration : 1 h 24 min

Bit rate : 1 100 kb/s

Width : 1 280 pixels

Height : 692 pixels

Display aspect ratio : 1.85:1

Frame rate mode : Constant

Frame rate : 29.970 (30000/1001) FPS

Color space : YUV

Chroma subsampling : 4:2:0

Bit depth : 8 bits

Scan type : Progressive

Bits/(Pixel*Frame) : 0.041

Stream size : 662 MiB (92%)

Writing library : x264 core 155 r2893 b00bcaf

Default : Yes

Forced : No



Audio

ID : 2

Format : AAC

Format/Info : Advanced Audio Codec

Format profile : HE-AAC / LC

Format settings : Explicit

Codec ID : A_AAC-2

Duration : 1 h 24 min

Bit rate : 96.0 kb/s

Channel(s) : 2 channels

Channel positions : Front: L R

Sampling rate : 48.0 kHz / 24.0 kHz

Frame rate : 23.438 FPS (1024 SPF)

Compression mode : Lossy

Stream size : 57.6 MiB (8%)

Language : English

Default : Yes

Forced : No













https://pichub.site/image/MwX2Z

https://pichub.site/image/Mw3wI

https://pichub.site/image/MwZxX

https://pichub.site/image/Mw1T8

https://pichub.site/image/MwHEJ

Internal Files
Early Man 2018 720p WEBRip x264 [MW].mkv   720.57 MB

1. udp://9.rarbg.com:2710/announce

2. udp://tracker.opentrackr.org:1337/announce

3. udp://tracker.pirateparty.gr:6969/announce

4. udp://tracker.leechers-paradise.org:6969/announce

5. udp://tracker.coppersurfer.tk:6969/announce

6. udp://tracker.zer0day.to:1337/announce

name size seeds peers added
Early.Man.2018.720p.HDRip.X264.AC3-EVO[N1C] posted in movies > misc 2.16 GB 6 12 3 months
Early.Man.2018.720p.BluRay.x264-x0r[N1C] posted in movies > misc 1.87 GB 5 14 3 months
Early.Man.2018.720p.HDRip.X264.AC3-EVO posted in movies > misc 2.16 GB 4 16 3 months
Early Man 2018 720p WEBRIP X264 AC3-DiVERSiTY posted in movies > misc 2.39 GB 3 11 3 months
Early.Man.2018.720p.BRRip.x264.AC3-iFT[N1C] posted in movies > misc 2.57 GB 2 4 3 months
Early.Man.2018.720p.BluRay.x264-x0r posted in movies > misc 2 GB 2 39 3 months
Early.Man.2018.720p.BluRay.AC3.x264-iFT posted in movies > misc 3.6 GB 2 6 2 months
Early.Man.2018.720p.BluRay.x264-DRONES posted in movies > misc 2.2 GB 1 4 3 months
Early.Man.2018.720p.BRRip.x264.AC3-iFT posted in movies > misc 2.6 GB 1 9 3 months
Avengers Infinity War 2018 Early 720p HDCAM ENG x264-Mr.Hive posted in movies > misc 2.5 GB 1 13 2 months
TOPlist