Fantastic Journey to Oz 2018 HDRip x264 AAC [MW]

Download via magnet link
Added May 11 2018 in Movies > Animation
Verified
Size : 896.01 MB
Seeds : 2 , Peers : 3 updated 3 months ago (new update strongly recommended) Refresh Leechers
Hash code : c4852d22619fca759299ca382aa2c81e195732a1


SCREENSHOT





General

Format : Matroska

Format version : Version 4 / Version 2

File size : 896 MiB

Duration : 1 h 31 min

Overall bit rate : 1 373 kb/s



Video

ID : 1

Format : AVC

Format/Info : Advanced Video Codec

Format profile : [email protected]

Format settings : CABAC / 4 Ref Frames

Format settings, CABAC : Yes

Format settings, RefFrames : 4 frames

Codec ID : V_MPEG4/ISO/AVC

Duration : 1 h 31 min

Bit rate : 1 300 kb/s

Width : 720 pixels

Height : 304 pixels

Display aspect ratio : 2.35:1

Frame rate mode : Constant

Frame rate : 23.976 (24000/1001) FPS

Color space : YUV

Chroma subsampling : 4:2:0

Bit depth : 8 bits

Scan type : Progressive

Bits/(Pixel*Frame) : 0.248

Stream size : 833 MiB (93%)

Writing library : x264 core 155 r2893 b00bcaf

Default : Yes

Forced : No



Audio

ID : 2

Format : AAC

Format/Info : Advanced Audio Codec

Format profile : HE-AAC / LC

Format settings : Explicit

Codec ID : A_AAC-2

Duration : 1 h 31 min

Bit rate : 96.0 kb/s

Channel(s) : 2 channels

Channel positions : Front: L R

Sampling rate : 48.0 kHz / 24.0 kHz

Frame rate : 23.438 FPS (1024 SPF)

Compression mode : Lossy

Stream size : 61.8 MiB (7%)

Language : English

Default : Yes

Forced : No











https://pichub.site/image/Mc9CI

https://pichub.site/image/McTQ8

https://pichub.site/image/McQ7J

https://pichub.site/image/McWG5

https://pichub.site/image/McbZh

https://pichub.site/image/McjIj

Internal Files
Fantastic Journey to Oz 2018 HDRip x264 AAC [MW].mkv   896.01 MB

1. udp://9.rarbg.com:2710/announce

2. udp://tracker.opentrackr.org:1337/announce

3. udp://tracker.pirateparty.gr:6969/announce

4. udp://tracker.leechers-paradise.org:6969/announce

5. udp://tracker.coppersurfer.tk:6969/announce

6. udp://tracker.zer0day.to:1337/announce

TOPlist