Looking Glass (2018) Nicolas Cage.720p.H264.italian.English.Ac3-5.1.sub.ita.eng.MIRCrew

Download via magnet link
Added April 20 2018 in Movies > Thriller
Verified
Size : 1.89 GB
Seeds : 3 , Peers : 161 updated 4 months ago (new update strongly recommended) Refresh Leechers
Hash code : 38d0f3c516e919bbe291fca36e7fca72ce0f08ac
Looking Glass (2018) Nicolas Cage.720p.H264.italian.English.Ac3-5.1.sub.ita.eng.MIRCrew



SCREENSHOT

NO FOUND ONLY ORIGINAL RELEASE



SCREENSHOT



My release is always in double track audio italian and Original audio

for select it use VLC or dvd player home

not use wmp



Looking Glass (2018)



Quality MIRCrew on HD 720p da 1,9 gb



SCREENSHOT



SCREENSHOT



SCREENSHOT



Regia di Tim Hunter.

Titolo originale: Looking Glass.

Genere Thriller

Canada, USA, 2018,



SCREENSHOT



Nicolas Cage, Robin Tunney, Marc Blucas, Ernie Lively, Jacque Gray, Bill Bolender. Cast completo



SCREENSHOT



Una coppia acquista un motel in un deserto. Nell'edificio c'è una stanza segreta che permette di vedere cosa succede nella camera più richiesta. Finchè ci scappa il morto.



SCREENSHOT



A psycho- sexual thriller following a couple that buys an old motel in the desert looking for a new beginning, but what seemed at first as an escape is soon a thrilling ride through a mysterious world when Ray discovers a two way mirror and witnesses a horrifying murder.



SCREENSHOT



SCREENSHOT



SCREENSHOT SCREENSHOT SCREENSHOT



SCREENSHOT



[spoiler]

General

Unique ID : 176912331679949545802577056280924795401 (0x85181361D22511A189FC89A496D63209)

Complete name : Looking Glass (2018).720p.h264.ita.eng.sub.ita.eng-MIRCrewLooking Glass (2018).720p.h264.ita.eng.sub.ita.eng-MIRCrew.mkv

Format : Matroska

Format version : Version 2

File size : 1.89 GiB

Duration : 1h 43mn

Overall bit rate : 2 601 Kbps

Movie name : MIRCrew

Encoded date : UTC 2018-04-15 18:54:48

Writing application : mkvmerge v5.4.0 ('Piper') built on Mar 10 2012 13:34:39

Writing library : Lavf54.63.100

COPYRIGHT : robbyrs - Il Corsaronero



Video

ID : 1

Format : AVC

Format/Info : Advanced Video Codec

Format profile : [email protected]

Format settings, CABAC : Yes

Format settings, ReFrames : 2 frames

Codec ID : V_MPEG4/ISO/AVC

Duration : 1h 43mn

Bit rate : 1 850 Kbps

Width : 1 280 pixels

Height : 720 pixels

Display aspect ratio : 16:9

Frame rate mode : Variable

Frame rate : 23.976 fps

Color space : YUV

Chroma subsampling : 4:2:0

Bit depth : 8 bits

Scan type : Progressive

Bits/(Pixel*Frame) : 0.084

Stream size : 1.29 GiB (68%)

Writing library : x264 core 130 r2273

Encoding settings : cabac=1 / ref=2 / deblock=1:0:0 / analyse=0x1:0x131 / me=hex / subme=7 / psy=1 / psy_rd=1.00:0.00 / mixed_ref=0 / me_range=16 / chroma_me=1 / trellis=1 / 8x8dct=0 / cqm=0 / deadzone=21,11 / fast_pskip=1 / chroma_qp_offset=-2 / threads=3 / lookahead_threads=1 / sliced_threads=0 / nr=0 / decimate=1 / interlaced=0 / bluray_compat=0 / constrained_intra=0 / bframes=3 / b_pyramid=0 / b_adapt=1 / b_bias=0 / direct=3 / weightb=1 / open_gop=0 / weightp=2 / keyint=230 / keyint_min=23 / scenecut=40 / intra_refresh=0 / rc_lookahead=40 / rc=abr / mbtree=1 / bitrate=1850 / ratetol=1.0 / qcomp=0.60 / qpmin=10 / qpmax=69 / qpstep=4 / vbv_maxrate=24000 / vbv_bufsize=24000 / nal_hrd=none / ip_ratio=1.40 / aq=1:1.00

Language : Italian

Default : Yes

Forced : No

DURATION : 01:43:38.671000000

NUMBER_OF_FRAMES : 149099

NUMBER_OF_BYTES : 10425095680

_STATISTICS_WRITING_APP : mkvmerge v9.5.0 ('Quiet Fire') 64bit

_STATISTICS_WRITING_DATE_UTC : 2018-04-03 08:12:43

_STATISTICS_TAGS : BPS DURATION NUMBER_OF_FRAMES NUMBER_OF_BYTES



Audio #1

ID : 2

Format : AC-3

Format/Info : Audio Coding 3

Mode extension : CM (complete main)

Codec ID : A_AC3

Duration : 1h 43mn

Bit rate mode : Constant

Bit rate : 384 Kbps

Channel(s) : 6 channels

Channel positions : Front: L C R, Side: L R, LFE

Sampling rate : 48.0 KHz

Bit depth : 16 bits

Compression mode : Lossy

Delay relative to video : -5ms

Stream size : 285 MiB (15%)

Title : Ita Ac3 5.1

Language : Italian

Default : Yes

Forced : No

DURATION : 01:43:47.904000000

NUMBER_OF_FRAMES : 194622

NUMBER_OF_BYTES : 298939392

_STATISTICS_WRITING_APP : mkvmerge v9.5.0 ('Quiet Fire') 64bit

_STATISTICS_WRITING_DATE_UTC : 2018-04-03 08:12:43

_STATISTICS_TAGS : BPS DURATION NUMBER_OF_FRAMES NUMBER_OF_BYTES



Audio #2

ID : 3

Format : AC-3

Format/Info : Audio Coding 3

Mode extension : CM (complete main)

Codec ID : A_AC3

Duration : 1h 43mn

Bit rate mode : Constant

Bit rate : 384 Kbps

Channel(s) : 6 channels

Channel positions : Front: L C R, Side: L R, LFE

Sampling rate : 48.0 KHz

Bit depth : 16 bits

Compression mode : Lossy

Delay relative to video : -5ms

Stream size : 285 MiB (15%)

Title : eng Ac3 5.1

Language : English

Default : No

Forced : No

DURATION : 01:43:38.688000000

NUMBER_OF_FRAMES : 194334

NUMBER_OF_BYTES : 497495040

_STATISTICS_WRITING_APP : mkvmerge v9.5.0 ('Quiet Fire') 64bit

_STATISTICS_WRITING_DATE_UTC : 2018-04-03 08:12:43

_STATISTICS_TAGS : BPS DURATION NUMBER_OF_FRAMES NUMBER_OF_BYTES



Menu

00:00:00.000 : :00:00:00.000

00:07:05.342 : :00:07:05.342

00:14:28.201 : :00:14:28.201

00:20:13.838 : :00:20:13.838

00:29:27.099 : :00:29:27.099

00:39:02.590 : :00:39:02.590

00:50:56.804 : :00:50:56.804

00:59:52.756 : :00:59:52.756

01:08:53.129 : :01:08:53.129

01:16:19.950 : :01:16:19.950

01:25:27.706 : :01:25:27.706

01:35:23.259 : :01:35:23.259





[/spoiler]


Internal Files
69.03 KB Looking Glass (2018).720p.h264.ita.eng.sub.ita.eng-MIRCrew.eng.srt

65.26 KB Looking Glass (2018).720p.h264.ita.eng.sub.ita.eng-MIRCrew.ita.srt

1.89 GB Looking Glass (2018).720p.h264.ita.eng.sub.ita.eng-MIRCrew.mkv

53 Byte MIRCrew-ilCorSaRoNeRo.txt

1. udp://9.rarbg.com:2710/announce

2. udp://tracker.opentrackr.org:1337/announce

3. udp://tracker.pirateparty.gr:6969/announce

4. udp://tracker.leechers-paradise.org:6969/announce

5. udp://tracker.coppersurfer.tk:6969/announce

6. udp://tracker.zer0day.to:1337/announce

No related torrents found!

TOPlist