Black Panther 2018 720p HC HDTC AAC LLG

Download via magnet link
Added April 17 2018 in Movies > Action
Verified
Size : 878.3 MB
Seeds : 118 , Peers : 259 updated 2 months ago (new update strongly recommended) Refresh Leechers
Hash code : 52238176c7b17f78ef3552bbe48b67329e747ae7
SCREENSHOT



SCREENSHOT



******************************Thumbnail:**********************



SCREENSHOT



******************************Screenshots:********************



Screenshot 1



Screenshot 2



Screenshot 3



Screenshot 4



Screenshot 5



Screenshot 6



Screenshot 7



Screenshot 8



Screenshot 9



Screenshot 0



**************************************************************



Complete name : Black Panther.2018.720p.HC.HDTC.AAC.LLG.mp4

Format : MPEG-4

Format profile : Base Media

Codec ID : isom (isom/iso2/avc1/mp41)

File size : 871 MiB

Duration : 2 h 6 min

Overall bit rate : 961 kb/s

Writing application : Lavf57.56.101



Video

ID : 1

Format : AVC

Format/Info : Advanced Video Codec

Format profile : [email protected]

Format settings : CABAC / 4 Ref Frames

Format settings, CABAC : Yes

Format settings, RefFrames : 4 frames

Codec ID : avc1

Codec ID/Info : Advanced Video Coding

Duration : 2 h 6 min

Bit rate : 900 kb/s

Width : 1 280 pixels

Height : 480 pixels

Display aspect ratio : 2.667

Frame rate mode : Constant

Frame rate : 25.000 FPS

Color space : YUV

Chroma subsampling : 4:2:0

Bit depth : 8 bits

Scan type : Progressive

Bits/(Pixel*Frame) : 0.059

Stream size : 808 MiB (93%)



Audio

ID : 2

Format : AAC

Format/Info : Advanced Audio Codec

Format profile : LC

Codec ID : mp4a-40-2

Duration : 2 h 6 min

Bit rate mode : Constant

Bit rate : 64.3 kb/s

Channel(s) : 2 channels

Channel positions : Front: L R

Sampling rate : 48.0 kHz

Frame rate : 46.875 FPS (1024 SPF)

Compression mode : Lossy

Stream size : 58.3 MiB (7%)

Language : English

Default : Yes

Alternate group : 1
Internal Files
5.94 MB Sample.mp4

871.34 MB Black Panther.2018.720p.HC.HDTC.AAC.LLG.mp4

1. udp://9.rarbg.com:2710/announce

2. udp://tracker.opentrackr.org:1337/announce

3. udp://tracker.pirateparty.gr:6969/announce

4. udp://tracker.leechers-paradise.org:6969/announce

5. udp://tracker.coppersurfer.tk:6969/announce

6. udp://tracker.zer0day.to:1337/announce

TOPlist