Missing 2018 Pre DVD Hindi GOPISAHI

Download via magnet link
Added April 16 2018 in Movies > Drama
Verified
Size : 277.15 MB
Seeds : 1 , Peers : 1 updated 3 months ago (new update strongly recommended) Refresh Leechers
Hash code : 1b0920bc9d3c136f20bca7359246c50671c9b0ab
SCREENSHOT

Format : Matroska

Format version : Version 4 / Version 2

File size : 277 MiB

Duration : 1 h 47 min

Overall bit rate : 359 kb/s

Movie name : Missing 2018 GOPISAHI



Video

Format : AVC

Codec ID : V_MPEG4/ISO/AVC

Duration : 1 h 47 min

Bit rate : 300 kb/s

Width : 622 pixels

Height : 272 pixels

Display aspect ratio : 2.25:1

Frame rate mode : Constant

Frame rate : 25.000 FPS

Color space : YUV

Chroma subsampling : 4:2:0

Bit depth : 8 bits

Scan type : Progressive

Bits/(Pixel*Frame) : 0.071

Stream size : 231 MiB (84%)

Title : GOPISAHI

Writing library : x264 core 155 r2893 b00bcaf



Audio

Format : AAC

Duration : 1 h 47 min

Bit rate : 56.5 kb/s

Channel(s) : 2 channels

Channel positions : Front: L R

Sampling rate : 44.1 kHz

Frame rate : 43.066 FPS (1024 SPF)

Compression mode : Lossy

Stream size : 43.6 MiB (16%)

Title : GOPISAHI

Language : Hindi

SCREENSHOT

SCREENSHOT

SCREENSHOT

SCREENSHOT

SCREENSHOT
Internal Files
276.62 MB Missing 2018 Pre DVD Hindi GOPISAHI.mkv

1. udp://9.rarbg.com:2710/announce

2. udp://tracker.opentrackr.org:1337/announce

3. udp://tracker.pirateparty.gr:6969/announce

4. udp://tracker.leechers-paradise.org:6969/announce

5. udp://tracker.coppersurfer.tk:6969/announce

6. udp://tracker.zer0day.to:1337/announce

TOPlist