Hostiles 2017 720p WEBRip x264 AAC LLG

Download via magnet link
Added April 15 2018 in Movies > Adventure
Verified
Size : 984.3 MB
Seeds : 1 , Peers : 6 updated 3 months ago (new update strongly recommended) Refresh Leechers
Hash code : 77317a480cc36a17fc0e0c5a0b19f4a814a64123
SCREENSHOT



SCREENSHOT



******************************Thumbnail:**********************



SCREENSHOT



******************************Screenshots:********************



Screenshot 1



Screenshot 2



Screenshot 3



Screenshot 4



Screenshot 5



Screenshot 6



Screenshot 7



Screenshot 8



Screenshot 9



Screenshot 0



**************************************************************



Complete name : Hostiles.2017.720p.WEBRip.x264.AAC.LLG.mp4

Format : MPEG-4

Format profile : Base Media

Codec ID : isom (isom/iso2/avc1/mp41)

File size : 976 MiB

Duration : 2 h 14 min

Overall bit rate : 1 016 kb/s

Writing application : Lavf57.56.101



Video

ID : 1

Format : AVC

Format/Info : Advanced Video Codec

Format profile : [email protected]

Format settings : CABAC / 4 Ref Frames

Format settings, CABAC : Yes

Format settings, RefFrames : 4 frames

Codec ID : avc1

Codec ID/Info : Advanced Video Coding

Duration : 2 h 14 min

Bit rate : 900 kb/s

Width : 1 280 pixels

Height : 522 pixels

Display aspect ratio : 2.450

Original display aspect ratio : 2.40:1

Frame rate mode : Constant

Frame rate : 23.976 (23976/1000) FPS

Color space : YUV

Chroma subsampling : 4:2:0

Bit depth : 8 bits

Scan type : Progressive

Bits/(Pixel*Frame) : 0.056

Stream size : 848 MiB (87%)



Audio

ID : 2

Format : AAC

Format/Info : Advanced Audio Codec

Format profile : LC

Codec ID : mp4a-40-2

Duration : 2 h 14 min

Duration_LastFrame : -19 ms

Bit rate mode : Constant

Bit rate : 128 kb/s

Channel(s) : 2 channels

Channel positions : Front: L R

Sampling rate : 48.0 kHz

Frame rate : 46.875 FPS (1024 SPF)

Compression mode : Lossy

Stream size : 123 MiB (13%)

Default : Yes

Alternate group : 1
Internal Files
7.9 MB Sample.mp4

976.05 MB Hostiles.2017.720p.WEBRip.x264.AAC.LLG.mp4

1. udp://9.rarbg.com:2710/announce

2. udp://tracker.opentrackr.org:1337/announce

3. udp://tracker.pirateparty.gr:6969/announce

4. udp://tracker.leechers-paradise.org:6969/announce

5. udp://tracker.coppersurfer.tk:6969/announce

6. udp://tracker.zer0day.to:1337/announce

name size seeds peers added
Hostiles (2017) [WEBRip] [720p] [YTS AM] posted in movies > adventure 1.1 GB 1804 2741 3 months
TOPlist