Wonder (2017) Julia Roberts.H264.italian.english.Ac3-5.1.sub.ita.eng.MIRCrew

Download via magnet link
Added April 15 2018 in Movies > Drama
Verified
Size : 1.73 GB
Seeds : 224 , Peers : 44 updated 2 months ago (new update strongly recommended) Refresh Leechers
Hash code : 043ae209f41e2749545c3754bed6bd0922a744ad
Wonder (2017) Julia Roberts.H264.italian.english.Ac3-5.1.sub.ita.eng.MIRCrew



SCREENSHOT

NO FOUND ONLY ORIGINAL RELEASE



SCREENSHOT





My release is always in double track audio italian and Original audio

for select it use VLC or dvd player home

not use wmp



Wonder (2017)



SCREENSHOT



SCREENSHOT



SCREENSHOT



GENERE: Drammatico, Family

ANNO: 2017

REGIA: Stephen Chbosky

PAESE: USA

DURATA: 113 Min



SCREENSHOT



Julia Roberts, Owen Wilson, Jacob Tremblay, Daveed Diggs, Mandy Patinkin, Sonia Braga, Ali Liebert, Emma Tremblay



SCREENSHOT



Auggie Pullman ha dieci anni, gioca alla playstation e adora Halloween. Perché è l'unico giorno dell'anno in cui si sente normale. Affetto dalla nascita da una grave anomalia cranio-facciale, Auggie ha subito ventisette interventi e nasconde il suo segreto sotto un casco da cosmonauta



SCREENSHOT



Based on the New York Times bestseller, WONDER tells the incredibly inspiring and heartwarming story of August Pullman, a boy with facial differences who enters 5th grade, attending a mainstream elementary school for the first time.



SCREENSHOT



SCREENSHOT

SCREENSHOT

SCREENSHOT

SCREENSHOT





SCREENSHOT



[spoiler]

General

Unique ID : 266940887480967002482663915702462756386 (0xC8D2F1E238431F2E18AC7B6724A0B622)

Complete name : Wonder (2017).H264.ita.eng.sub.ita.eng-MIRCrewWonder (2017).H264.ita.eng.sub.ita.eng-MIRCrew.mkv

Format : Matroska

Format version : Version 2

File size : 1.73 GiB

Duration : 1h 53mn

Overall bit rate : 2 193 Kbps

Movie name : MIRCrew

Encoded date : UTC 2018-04-14 14:03:20

Writing application : Lavf54.63.100

Writing library : Lavf54.63.100

COPYRIGHT : robbyrs - Il Corsaronero



Video

ID : 1

Format : AVC

Format/Info : Advanced Video Codec

Format profile : [email protected]

Format settings, CABAC : Yes

Format settings, ReFrames : 2 frames

Codec ID : V_MPEG4/ISO/AVC

Duration : 1h 53mn

Bit rate : 1 300 Kbps

Width : 720 pixels

Height : 304 pixels

Display aspect ratio : 2.40:1

Original display aspect ratio : 2.40:1

Frame rate mode : Variable

Frame rate : 24.000 fps

Color space : YUV

Chroma subsampling : 4:2:0

Bit depth : 8 bits

Scan type : Progressive

Bits/(Pixel*Frame) : 0.247

Stream size : 1 014 MiB (57%)

Writing library : x264 core 130 r2273

Encoding settings : cabac=1 / ref=2 / deblock=1:0:0 / analyse=0x1:0x131 / me=hex / subme=7 / psy=1 / psy_rd=1.00:0.00 / mixed_ref=0 / me_range=16 / chroma_me=1 / trellis=1 / 8x8dct=0 / cqm=0 / deadzone=21,11 / fast_pskip=1 / chroma_qp_offset=-2 / threads=3 / lookahead_threads=1 / sliced_threads=0 / nr=0 / decimate=1 / interlaced=0 / bluray_compat=0 / constrained_intra=0 / bframes=3 / b_pyramid=0 / b_adapt=1 / b_bias=0 / direct=3 / weightb=1 / open_gop=0 / weightp=2 / keyint=240 / keyint_min=24 / scenecut=40 / intra_refresh=0 / rc_lookahead=40 / rc=abr / mbtree=1 / bitrate=1300 / ratetol=1.0 / qcomp=0.60 / qpmin=10 / qpmax=69 / qpstep=4 / vbv_maxrate=24000 / vbv_bufsize=24000 / nal_hrd=none / ip_ratio=1.40 / aq=1:1.00

Language : Italian

Default : Yes

Forced : No

DURATION : 01:53:04.042000000

NUMBER_OF_FRAMES : 162817

NUMBER_OF_BYTES : 8433529484

_STATISTICS_WRITING_APP : mkvmerge v9.5.0 ('Quiet Fire') 64bit

_STATISTICS_WRITING_DATE_UTC : 2018-04-05 20:31:02

_STATISTICS_TAGS : BPS DURATION NUMBER_OF_FRAMES NUMBER_OF_BYTES



Audio #1

ID : 2

Format : AC-3

Format/Info : Audio Coding 3

Mode extension : CM (complete main)

Codec ID : A_AC3

Duration : 1h 53mn

Bit rate mode : Constant

Bit rate : 448 Kbps

Channel(s) : 6 channels

Channel positions : Front: L C R, Side: L R, LFE

Sampling rate : 48.0 KHz

Bit depth : 16 bits

Compression mode : Lossy

Delay relative to video : 1mn 5s

Stream size : 362 MiB (20%)

Title : AC3 ITA

Language : Italian

Default : No

Forced : No

DURATION : 01:53:03.008000000

NUMBER_OF_FRAMES : 211969

NUMBER_OF_BYTES : 542640640

_STATISTICS_WRITING_APP : mkvmerge v9.5.0 ('Quiet Fire') 64bit

_STATISTICS_WRITING_DATE_UTC : 2018-04-05 20:31:02

_STATISTICS_TAGS : BPS DURATION NUMBER_OF_FRAMES NUMBER_OF_BYTES



Audio #2

ID : 3

Format : AC-3

Format/Info : Audio Coding 3

Mode extension : CM (complete main)

Codec ID : A_AC3

Duration : 1h 53mn

Bit rate mode : Constant

Bit rate : 448 Kbps

Channel(s) : 6 channels

Channel positions : Front: L C R, Side: L R, LFE

Sampling rate : 48.0 KHz

Bit depth : 16 bits

Compression mode : Lossy

Delay relative to video : 1mn 5s

Stream size : 362 MiB (20%)

Title : AC3 ENG

Language : English

Default : No

Forced : No

DURATION : 01:53:04.064000000

NUMBER_OF_FRAMES : 212002

NUMBER_OF_BYTES : 542725120

_STATISTICS_WRITING_APP : mkvmerge v9.5.0 ('Quiet Fire') 64bit

_STATISTICS_WRITING_DATE_UTC : 2018-04-05 20:31:02

_STATISTICS_TAGS : BPS DURATION NUMBER_OF_FRAMES NUMBER_OF_BYTES



Menu

00:00:00.000 : :00:00:00.000

00:07:05.342 : :00:07:05.342

00:14:28.201 : :00:14:28.201

00:20:13.838 : :00:20:13.838

00:29:27.099 : :00:29:27.099

00:39:02.590 : :00:39:02.590

00:50:56.804 : :00:50:56.804

00:59:52.756 : :00:59:52.756

01:08:53.129 : :01:08:53.129

01:16:19.950 : :01:16:19.950

01:25:27.706 : :01:25:27.706

01:35:23.259 : :01:35:23.259

01:45:16.300 : :01:45:16:300

01:50:01.150 : :01:50:01:150







[/spoiler]


Internal Files
53 Byte MIRCrew-ilCorSaRoNeRo.txt

105.91 KB Wonder (2017).H264.ita.eng.sub.ita.eng-MIRCrew.eng.srt

95.91 KB Wonder (2017).H264.ita.eng.sub.ita.eng-MIRCrew.ita.srt

1.73 GB Wonder (2017).H264.ita.eng.sub.ita.eng-MIRCrew.mkv

786 Byte Wonder (2017).H264.ita.eng.sub.ita.eng-MIRCrew.srt

1. udp://9.rarbg.com:2710/announce

2. udp://tracker.opentrackr.org:1337/announce

3. udp://tracker.pirateparty.gr:6969/announce

4. udp://tracker.leechers-paradise.org:6969/announce

5. udp://tracker.coppersurfer.tk:6969/announce

6. udp://tracker.zer0day.to:1337/announce

No related torrents found!

TOPlist