18+ Party Bus to Hell 2018 720p WEB-DL DD5 1 H264 LLG

Download via magnet link
Added April 14 2018 in Movies > Horror
Verified
Size : 1.01 GB
Seeds : 1 , Peers : 1 updated 3 months ago (new update strongly recommended) Refresh Leechers
Hash code : 431ca8b7ffb112a94a68d8b045cff87bb7f78107
SCREENSHOT



SCREENSHOT



******************************Thumbnail:**********************



SCREENSHOT



******************************Screenshots:********************



Screenshot 1



Screenshot 2



Screenshot 3



Screenshot 4



Screenshot 5



Screenshot 6



Screenshot 7



Screenshot 8



Screenshot 9



Screenshot 0



**************************************************************



Complete name : 18+.Party.Bus.to.Hell.2018.720p.WEB-DL.DD5.1.H264.LLG.mp4

Format : MPEG-4

Format profile : Base Media

Codec ID : isom (isom/iso2/avc1/mp41)

File size : 1 012 MiB

Duration : 1 h 21 min

Overall bit rate : 1 738 kb/s

Writing application : Lavf57.56.101



Video

ID : 1

Format : AVC

Format/Info : Advanced Video Codec

Format profile : [email protected]

Format settings : CABAC / 4 Ref Frames

Format settings, CABAC : Yes

Format settings, RefFrames : 4 frames

Codec ID : avc1

Codec ID/Info : Advanced Video Coding

Duration : 1 h 21 min

Bit rate : 1 500 kb/s

Width : 1 280 pixels

Height : 714 pixels

Display aspect ratio : 16:9

Frame rate mode : Constant

Frame rate : 23.976 (23976/1000) FPS

Color space : YUV

Chroma subsampling : 4:2:0

Bit depth : 8 bits

Scan type : Progressive

Bits/(Pixel*Frame) : 0.068

Stream size : 860 MiB (85%)



Audio

ID : 2

Format : AC-3

Format/Info : Audio Coding 3

Codec ID : ac-3

Duration : 1 h 21 min

Bit rate mode : Constant

Bit rate : 256 kb/s

Channel(s) : 6 channels

Channel positions : Front: L C R, Side: L R, LFE

Sampling rate : 48.0 kHz

Frame rate : 31.250 FPS (1536 SPF)

Bit depth : 16 bits

Compression mode : Lossy

Stream size : 149 MiB (15%)

Language : English

Service kind : Complete Main

Default : Yes

Alternate group : 1
Internal Files
17.2 MB Sample.ts

1011.97 MB 18+.Party.Bus.to.Hell.2017.720p.WEB-DL.DD5.1.H264.LLG.mp4

1. udp://9.rarbg.com:2710/announce

2. udp://tracker.opentrackr.org:1337/announce

3. udp://tracker.pirateparty.gr:6969/announce

4. udp://tracker.leechers-paradise.org:6969/announce

5. udp://tracker.coppersurfer.tk:6969/announce

6. udp://tracker.zer0day.to:1337/announce

TOPlist