18+ Killer Mom TV Movie 2017 HDRip XviD AC3 LLG

Download via magnet link
Added April 13 2018 in Movies > Thriller
Verified
Size : 1 GB
Seeds : 1 , Peers : 1 updated 4 months ago (new update strongly recommended) Refresh Leechers
Hash code : 1f686e65bfb401eb1d2a5bf92c1a1e9a318e8ee3
SCREENSHOT



SCREENSHOT



******************************Thumbnail:**********************



SCREENSHOT



******************************Screenshots:********************



Screenshot 1



Screenshot 2



Screenshot 3



Screenshot 4



Screenshot 5



Screenshot 6



Screenshot 7



Screenshot 8



Screenshot 9



Screenshot 0



**************************************************************



Complete name : 18+.Killer.Mom.TV.Movie.2017.HDRip.XviD.AC3.LLG.mp4

Format : MPEG-4

Format profile : Base Media

Codec ID : isom (isom/iso2/avc1/mp41)

File size : 986 MiB

Duration : 1 h 24 min

Overall bit rate : 1 626 kb/s

Writing application : Lavf57.56.101



Video

ID : 1

Format : AVC

Format/Info : Advanced Video Codec

Format profile : [email protected]

Format settings : CABAC / 4 Ref Frames

Format settings, CABAC : Yes

Format settings, RefFrames : 4 frames

Codec ID : avc1

Codec ID/Info : Advanced Video Coding

Duration : 1 h 24 min

Bit rate : 1 500 kb/s

Width : 720 pixels

Height : 404 pixels

Display aspect ratio : 16:9

Frame rate mode : Constant

Frame rate : 23.976 (23976/1000) FPS

Color space : YUV

Chroma subsampling : 4:2:0

Bit depth : 8 bits

Scan type : Progressive

Bits/(Pixel*Frame) : 0.215

Stream size : 905 MiB (92%)



Audio

ID : 2

Format : AC-3

Format/Info : Audio Coding 3

Codec ID : ac-3

Duration : 1 h 24 min

Bit rate mode : Constant

Bit rate : 128 kb/s

Channel(s) : 2 channels

Channel positions : Front: L R

Sampling rate : 48.0 kHz

Frame rate : 31.250 FPS (1536 SPF)

Bit depth : 16 bits

Compression mode : Lossy

Stream size : 77.6 MiB (8%)

Title : T2_Audio - English

Service kind : Complete Main

Default : Yes

Alternate group : 1
Internal Files
37.32 MB Sample.ts

985.84 MB 18+.Killer.Mom.TV.Movie.2017.HDRip.XviD.AC3.LLG.mp4

1. udp://9.rarbg.com:2710/announce

2. udp://tracker.opentrackr.org:1337/announce

3. udp://tracker.pirateparty.gr:6969/announce

4. udp://tracker.leechers-paradise.org:6969/announce

5. udp://tracker.coppersurfer.tk:6969/announce

6. udp://tracker.zer0day.to:1337/announce

TOPlist