San Andreas 2015 720p Esub BluRay Dual Audio English Hindi GOPISAHI

Download via magnet link
Added April 13 2018 in Movies > Adventure
Verified
Size : 880.3 MB
Seeds : 2 , Peers : 0 updated 3 months ago (new update strongly recommended) Refresh Leechers
Hash code : 1d5f5588b117edb8ba417ebeab94c039f6782358
SCREENSHOT

Format : Matroska



Format version : Version 4 / Version 2



File size : 879 MiB



Duration : 1 h 55 min



Overall bit rate : 1 069 kb/s



Movie name : San Andreas 2015 GOPISAHI





Video



Format : AVC



Codec ID : V_MPEG4/ISO/AVC



Duration : 1 h 54 min



Bit rate : 898 kb/s



Width : 1 280 pixels



Height : 536 pixels



Display aspect ratio : 2.40:1



Frame rate mode : Constant



Frame rate : 23.976 (24000/1001) FPS



Original frame rate : 23.976 (23976/1000) FPS



Stream size : 735 MiB (84%)



Title : GOPISAHI



Writing library : x264 core 123 r2189 35cf912





Audio #1



Format : AAC



Duration : 1 h 54 min



Bit rate : 87.0 kb/s



Channel(s) : 6 channels



Channel positions : Front: L C R, Side: L R, LFE



Sampling rate : 44.1 kHz



Frame rate : 43.066 FPS (1024 SPF)



Compression mode : Lossy



Stream size : 71.2 MiB (8%)



Title : GOPISAHI



Language : English





Audio #2



Format : AAC



Duration : 1 h 54 min



Bit rate : 86.1 kb/s



Channel(s) : 6 channels



Channel positions : Front: L C R, Side: L R, LFE



Sampling rate : 44.1 kHz



Frame rate : 43.066 FPS (1024 SPF)



Compression mode : Lossy



Stream size : 70.5 MiB (8%)



Title : GOPISAHI



Language : Hindi





Text



Language : English

SCREENSHOT

SCREENSHOT

SCREENSHOT
Internal Files
879.2 MB San Andreas 2015 720p Esub BluRay Dual Audio English Hindi GOPISAHI.mkv

1. udp://9.rarbg.com:2710/announce

2. udp://tracker.opentrackr.org:1337/announce

3. udp://tracker.pirateparty.gr:6969/announce

4. udp://tracker.leechers-paradise.org:6969/announce

5. udp://tracker.coppersurfer.tk:6969/announce

6. udp://tracker.zer0day.to:1337/announce

TOPlist