House on Elm Lake 2017 HDRip x264 [MW]

Download via magnet link
Added April 11 2018 in Movies > Horror
Verified
Size : 736.3 MB
Seeds : 2 , Peers : 4 updated 3 months ago (new update strongly recommended) Refresh Leechers
Hash code : 8200ef01be9724fd1e6946ad27acc64c206311cb


SCREENSHOT





General

Format : Matroska

Format version : Version 4 / Version 2

File size : 735 MiB

Duration : 1 h 36 min

Overall bit rate : 1 062 kb/s



Video

ID : 1

Format : AVC

Format/Info : Advanced Video Codec

Format profile : [email protected]

Format settings : CABAC / 4 Ref Frames

Format settings, CABAC : Yes

Format settings, RefFrames : 4 frames

Codec ID : V_MPEG4/ISO/AVC

Duration : 1 h 36 min

Bit rate : 1 000 kb/s

Width : 720 pixels

Height : 304 pixels

Display aspect ratio : 2.35:1

Frame rate mode : Constant

Frame rate : 25.000 FPS

Color space : YUV

Chroma subsampling : 4:2:0

Bit depth : 8 bits

Scan type : Progressive

Bits/(Pixel*Frame) : 0.183

Stream size : 691 MiB (94%)

Writing library : x264 core 155 r2893 b00bcaf

ip_ratio=1.40 / aq=1:1.00

Default : Yes

Forced : No



Audio

ID : 2

Format : AAC

Format/Info : Advanced Audio Codec

Format profile : HE-AAC / LC

Format settings : Explicit

Codec ID : A_AAC-2

Duration : 1 h 36 min

Bit rate : 62.7 kb/s

Channel(s) : 2 channels

Channel positions : Front: L R

Sampling rate : 48.0 kHz / 24.0 kHz

Frame rate : 23.438 FPS (1024 SPF)

Compression mode : Lossy

Stream size : 43.4 MiB (6%)

Language : English

Default : Yes

Forced : No











https://pichub.site/image/JlJ8s

https://pichub.site/image/Jla4Y

https://pichub.site/image/JlIy6

https://pichub.site/image/JlOLt

https://pichub.site/image/JlRQ4

https://pichub.site/image/JlDdp

Internal Files
735.31 MB House on Elm Lake 2017 HDRip x264 [MW].mkv

1. udp://9.rarbg.com:2710/announce

2. udp://tracker.opentrackr.org:1337/announce

3. udp://tracker.pirateparty.gr:6969/announce

4. udp://tracker.leechers-paradise.org:6969/announce

5. udp://tracker.coppersurfer.tk:6969/announce

6. udp://tracker.zer0day.to:1337/announce

TOPlist