Blade Runner 2049 2017 720p BluRay x264 GOPISAHI

Download via magnet link
Added April 11 2018 in Movies > Adventure
Verified
Size : 684.3 MB
Seeds : 40 , Peers : 8 updated 2 months ago (new update strongly recommended) Refresh Leechers
Hash code : 8ff8e4f951fb4eb13ead232acd05d9717ceb1991
SCREENSHOT

Format : Matroska

Format version : Version 4 / Version 2

File size : 684 MiB

Duration : 2 h 43 min

Overall bit rate : 585 kb/s

Movie name : Blade Runner 2049 2017 GOPISAHI



Video

Format : AVC

Codec ID : V_MPEG4/ISO/AVC

Duration : 2 h 43 min

Bit rate : 500 kb/s

Width : 1 280 pixels

Height : 532 pixels

Display aspect ratio : 2.40:1

Frame rate mode : Constant

Frame rate : 23.976 (24000/1001) FPS

Stream size : 585 MiB (85%)

Title : GOPISAHI

Writing library : x264 core 148 r2708 86b7198



Audio

Format : AAC

Duration : 2 h 43 min

Bit rate : 82.6 kb/s

Channel(s) : 6 channels

Channel positions : Front: L C R, Side: L R, LFE

Sampling rate : 44.1 kHz

Frame rate : 43.066 FPS (1024 SPF)

Compression mode : Lossy

Stream size : 96.6 MiB (14%)

Title : GOPISAHI

Language : English



Text #1

Language : English





Text #2

Language : English



Text #3

Language : Dutch



Text #4

Language : Swedish

SCREENSHOT

SCREENSHOT

SCREENSHOT
Internal Files
683.81 MB Blade Runner 2049 2017 720p BluRay x264 GOPISAHI.mkv

1. udp://9.rarbg.com:2710/announce

2. udp://tracker.opentrackr.org:1337/announce

3. udp://tracker.pirateparty.gr:6969/announce

4. udp://tracker.leechers-paradise.org:6969/announce

5. udp://tracker.coppersurfer.tk:6969/announce

6. udp://tracker.zer0day.to:1337/announce

name size seeds peers added
Blade Runner 2049 (2017) [1080p] [YTS AG] posted in movies > sci-fi 2.51 GB 6970 8063 6 months
Blade Runner 2049 (2017) [720p] [YTS AG] posted in movies > drama 1.2 GB 6532 9287 6 months
Blade.Runner.2049.2017.WEB-DL.x264-FGT [rarbg] posted in movies > misc 1.4 GB 1584 3427 6 months
Blade.Runner.2049.2017.WEB-DL.XviD.MP3-FGT [rarbg] posted in movies > misc 1.73 GB 864 1276 6 months
Blade.Runner.2049.2017.DVDRip.x264.torrent posted in movies > misc 1.42 GB 485 324 6 months
Blade.Runner.2049.2017.BRRip.XviD.MP3-RARBG posted in movies > misc 1.19 GB 93 95 6 months
Blade Runner 2049 2017 FULL CAM x264 - THESTiG posted in movies > misc 2.03 GB 92 160 9 months
Blade.Runner.2049.2017.BRRip.XviD.AC3-RARBG posted in movies > misc 1.47 GB 92 86 6 months
Blade.Runner.2049.2017.1080p.BluRay.x264-SPARKS[EtHD] posted in movies > misc 12.12 GB 67 109 6 months
Blade Runner 2049 2017 iTA ENG Bluray 1080p x264-HDi mkv posted in movies > thriller 13.21 GB 62 26 5 months
TOPlist