Hostiles 2017 720p WEB-DL x264 [MW]

Download via magnet link
Added April 10 2018 in Movies > Adventure
Verified
Size : 1.23 GB
Seeds : 3 , Peers : 3 updated 3 months ago (new update strongly recommended) Refresh Leechers
Hash code : de3709ca498fd7f6a0e487d8a13d80fcd24feaf1


SCREENSHOT





General

Format : Matroska

Format version : Version 4 / Version 2

File size : 1.23 GiB

Duration : 2 h 7 min

Overall bit rate : 1 376 kb/s



Video

ID : 1

Format : AVC

Format/Info : Advanced Video Codec

Format profile : [email protected]

Format settings : CABAC / 4 Ref Frames

Format settings, CABAC : Yes

Format settings, RefFrames : 4 frames

Codec ID : V_MPEG4/ISO/AVC

Duration : 2 h 7 min

Bit rate : 1 300 kb/s

Width : 1 280 pixels

Height : 536 pixels

Display aspect ratio : 2.40:1

Frame rate mode : Constant

Frame rate : 25.000 FPS

Color space : YUV

Chroma subsampling : 4:2:0

Bit depth : 8 bits

Scan type : Progressive

Bits/(Pixel*Frame) : 0.076

Stream size : 1.14 GiB (93%)

Writing library : x264 core 155 r2893 b00bcaf

Default : Yes

Forced : No



Audio

ID : 2

Format : AAC

Format/Info : Advanced Audio Codec

Format profile : HE-AAC / LC

Format settings : Explicit

Codec ID : A_AAC-2

Duration : 2 h 7 min

Bit rate : 96.0 kb/s

Channel(s) : 2 channels

Channel positions : Front: L R

Sampling rate : 48.0 kHz / 24.0 kHz

Frame rate : 23.438 FPS (1024 SPF)

Compression mode : Lossy

Stream size : 86.7 MiB (7%)

Language : English

Default : Yes

Forced : No



Menu

00:00:00.000 : en:Ã

00:07:15.720 : en:Ã

00:15:09.880 : en:Ã

00:23:15.400 : en:Ã

00:32:19.200 : en:Ã

00:41:12.960 : en:Ã

00:48:58.200 : en:Ã

00:56:52.200 : en:Ã

01:04:56.560 : en:Ã

01:14:46.040 : en:Ã

01:24:27.600 : en:Ã

01:32:39.360 : en:Ã

01:40:17.440 : en:Ã

01:48:57.280 : en:Ã

01:56:22.280 : en:Ã









https://pichub.site/image/J2KUX

https://pichub.site/image/J2BcI

https://pichub.site/image/J28bg

https://pichub.site/image/J2zoZ

https://pichub.site/image/J2tiD

https://pichub.site/image/J2CPT

Internal Files
1.23 GB Hostiles 2017 720p WEB-DL x264 [MW].mkv

1. udp://9.rarbg.com:2710/announce

2. udp://tracker.opentrackr.org:1337/announce

3. udp://tracker.pirateparty.gr:6969/announce

4. udp://tracker.leechers-paradise.org:6969/announce

5. udp://tracker.coppersurfer.tk:6969/announce

6. udp://tracker.zer0day.to:1337/announce

name size seeds peers added
downloadhub in Hostiles (2017) 720p Web-DL x264 AAC ESubs - Downloadhub posted in movies > adventure 1.02 GB 1 0 3 months
TOPlist