Super Singh 2017 720p HD Hindi GOPISAHI

Download via magnet link
Added April 9 2018 in Movies > Adventure
Verified
Size : 601.3 MB
Seeds : 1 , Peers : 2 updated 3 months ago (new update strongly recommended) Refresh Leechers
Hash code : 8cd5fb524dfecd21ae3b8ba80be5a6022e99cefe
SCREENSHOT

Format : Matroska



Format version : Version 4 / Version 2



File size : 601 MiB



Duration : 2 h 26 min



Overall bit rate : 573 kb/s



Movie name : Super Singh 2017 GOPISAHI





Video



Format : AVC



Codec ID : V_MPEG4/ISO/AVC



Duration : 2 h 26 min



Bit rate : 500 kb/s



Width : 1 280 pixels



Height : 450 pixels



Display aspect ratio : 2.844



Frame rate mode : Constant



Frame rate : 25.000 FPS



Stream size : 524 MiB (87%)



Title : GOPISAHI



Writing library : x264 core 148 r2708 86b719T.709





Audio



Format : AAC



Duration : 2 h 26 min



Bit rate : 72.0 kb/s



Channel(s) : 6 channels



Channel positions : Front: L C R, Side: L R, LFE



Sampling rate : 44.1 kHz



Frame rate : 43.066 FPS (1024 SPF)



Compression mode : Lossy



Stream size : 74.5 MiB (12%)



Title : GOPISAHI



Language : Hindi

SCREENSHOT

SCREENSHOT

SCREENSHOT
Internal Files
600.98 MB Super Singh 2017 720p HD Punjabi GOPISAHI.mkv

1. udp://9.rarbg.com:2710/announce

2. udp://tracker.opentrackr.org:1337/announce

3. udp://tracker.pirateparty.gr:6969/announce

4. udp://tracker.leechers-paradise.org:6969/announce

5. udp://tracker.coppersurfer.tk:6969/announce

6. udp://tracker.zer0day.to:1337/announce

name size seeds peers added
downloadhub in Super Singh (2017) Hindi 720p DTHRip x264 AAC - Downloadhub posted in movies > action 1.12 GB 1 3 3 months
TOPlist