Paddington 2 (2017).720p.H264.italian.english.Ac3-5.1.sub.ita.MIRCrew

Download via magnet link
Added March 19 2018 in Movies > Family
Verified
Size : 1.88 GB
Seeds : 2 , Peers : 0 updated 5 months ago (new update strongly recommended) Refresh Leechers
Hash code : 598558ff8fbf04264d868fa91fcb6e1f82b778e6
Paddington 2 (2017).720p.H264.italian.english.Ac3-5.1.sub.ita.MIRCrew



SCREENSHOT

NO FOUND ONLY ORIGINAL RELEASE



SCREENSHOT



My release is always in double track audio italian and Original audio

for select it use VLC or dvd player home

not use wmp



Paddington 2 (2017).720p



Qualità MIRCrew in HD 720p da 1,88 gb



SCREENSHOT



SCREENSHOT



SCREENSHOT



GENERE: Commedia, Avventura, Family

ANNO: 2017

REGIA: Paul King

PAESE: Gran Bretagna

DURATA: 95 Min



SCREENSHOT



Ben Whishaw, Hugh Grant, Brendan Gleeson, Jim Broadbent, Peter Capaldi, Julie Walters, Sally Hawkins, Francesco Mandelli, Hugh Bonneville



SCREENSHOT



Ufficialmente trasferitosi nella mansarda di casa Brown a Windsor Gardens, Paddington (anche questa volta la voce italiana è quella di Francesco Mandelli) è diventato davvero popolare nel quartiere. E la notorietà dell'orso è destinata a crescere nel secondo capitolo delle sue avventure



SCREENSHOT



Paddington, now happily settled with the Brown family and a popular member of the local community, picks up a series of odd jobs to buy the perfect present for his Aunt Lucy's 100th birthday, only for the gift to be stolen.



SCREENSHOT



SCREENSHOT



SCREENSHOT



SCREENSHOT SCREENSHOT SCREENSHOT



SCREENSHOT



[spoiler]

General

Unique ID : 233120848261346151187300409131376122598 (0xAF6171362A55B9D894247AED23611AE6)

Complete name : Paddington 2 (2017).720p.ita.eng.sub.ita-MIRCrewPaddington 2 (2017).720p.ita.eng.sub.ita-MIRCrew.mkv

Format : Matroska

Format version : Version 2

File size : 1.88 GiB

Duration : 1h 44mn

Overall bit rate : 2 583 Kbps

Movie name : MIRCrew

Encoded date : UTC 2018-03-17 12:28:41

Writing application : mkvmerge v5.4.0 ('Piper') built on Mar 10 2012 13:34:39

Writing library : Lavf54.63.100

COPYRIGHT : robbyrs-ilcorsaronero



Video

ID : 1

Format : AVC

Format/Info : Advanced Video Codec

Format profile : [email protected]

Format settings, CABAC : Yes

Format settings, ReFrames : 2 frames

Codec ID : V_MPEG4/ISO/AVC

Duration : 1h 44mn

Bit rate : 1 700 Kbps

Width : 1 280 pixels

Height : 528 pixels

Display aspect ratio : 2.40:1

Frame rate mode : Variable

Frame rate : 24.000 fps

Color space : YUV

Chroma subsampling : 4:2:0

Bit depth : 8 bits

Scan type : Progressive

Bits/(Pixel*Frame) : 0.105

Stream size : 1.19 GiB (63%)

Writing library : x264 core 130 r2273

Encoding settings : cabac=1 / ref=2 / deblock=1:0:0 / analyse=0x1:0x131 / me=hex / subme=7 / psy=1 / psy_rd=1.00:0.00 / mixed_ref=0 / me_range=16 / chroma_me=1 / trellis=1 / 8x8dct=0 / cqm=0 / deadzone=21,11 / fast_pskip=1 / chroma_qp_offset=-2 / threads=3 / lookahead_threads=1 / sliced_threads=0 / nr=0 / decimate=1 / interlaced=0 / bluray_compat=0 / constrained_intra=0 / bframes=3 / b_pyramid=0 / b_adapt=1 / b_bias=0 / direct=3 / weightb=1 / open_gop=0 / weightp=2 / keyint=240 / keyint_min=24 / scenecut=40 / intra_refresh=0 / rc_lookahead=40 / rc=abr / mbtree=1 / bitrate=1700 / ratetol=1.0 / qcomp=0.60 / qpmin=10 / qpmax=69 / qpstep=4 / vbv_maxrate=24000 / vbv_bufsize=24000 / nal_hrd=none / ip_ratio=1.40 / aq=1:1.00

Language : Italian

Default : Yes

Forced : No

DURATION : 01:44:04.500000000

NUMBER_OF_FRAMES : 149868

NUMBER_OF_BYTES : 6906311236

_STATISTICS_WRITING_APP : mkvmerge v9.7.1 ('Pandemonium') 64bit

_STATISTICS_WRITING_DATE_UTC : 2018-03-10 10:42:57

_STATISTICS_TAGS : BPS DURATION NUMBER_OF_FRAMES NUMBER_OF_BYTES



Audio #1

ID : 2

Format : AC-3

Format/Info : Audio Coding 3

Mode extension : CM (complete main)

Codec ID : A_AC3

Duration : 1h 44mn

Bit rate mode : Constant

Bit rate : 448 Kbps

Channel(s) : 6 channels

Channel positions : Front: L C R, Side: L R, LFE

Sampling rate : 48.0 KHz

Bit depth : 16 bits

Compression mode : Lossy

Delay relative to video : -5ms

Stream size : 334 MiB (17%)

Title : Ita. AC3 5.1

Language : Italian

Default : No

Forced : No

DURATION : 01:44:04.704000000

NUMBER_OF_FRAMES : 195147

NUMBER_OF_BYTES : 499576320

_STATISTICS_WRITING_APP : mkvmerge v9.7.1 ('Pandemonium') 64bit

_STATISTICS_WRITING_DATE_UTC : 2018-03-10 10:42:57

_STATISTICS_TAGS : BPS DURATION NUMBER_OF_FRAMES NUMBER_OF_BYTES



Audio #2

ID : 3

Format : AC-3

Format/Info : Audio Coding 3

Mode extension : CM (complete main)

Codec ID : A_AC3

Duration : 1h 44mn

Bit rate mode : Constant

Bit rate : 448 Kbps

Channel(s) : 6 channels

Channel positions : Front: L C R, Side: L R, LFE

Sampling rate : 48.0 KHz

Bit depth : 16 bits

Compression mode : Lossy

Delay relative to video : -5ms

Stream size : 334 MiB (17%)

Title : Eng. Ac3 5.1

Language : English

Default : No

Forced : No

DURATION : 01:44:04.736000000

NUMBER_OF_FRAMES : 585444

NUMBER_OF_BYTES : 1177913464

_STATISTICS_WRITING_APP : mkvmerge v9.7.1 ('Pandemonium') 64bit

_STATISTICS_WRITING_DATE_UTC : 2018-03-10 10:42:57

_STATISTICS_TAGS : BPS DURATION NUMBER_OF_FRAMES NUMBER_OF_BYTES



Menu

00:00:00.000 : :(01)00:00:00:000

00:08:22.583 : :(02)00:08:22:583

00:17:16.208 : :(03)00:17:16:208

00:27:20.041 : :(04)00:27:20:041

00:34:35.208 : :(05)00:34:35:208

00:43:24.875 : :(06)00:43:24:875

00:52:22.875 : :(07)00:52:22:875

01:00:32.166 : :(08)01:00:32:166

01:09:07.166 : :(09)01:09:07:166

01:16:53.083 : :(10)01:16:53:083

01:26:36.000 : :(11)01:26:36:000

01:34:03.833 : :(12)01:34:03:833





[/spoiler]


Internal Files
53 Byte MIRCrew-ilCorSaRoNeRo.txt

101.22 KB Paddington 2 (2017).720p.ita.eng.sub.ita-MIRCrew.ita.srt

1.88 GB Paddington 2 (2017).720p.ita.eng.sub.ita-MIRCrew.mkv

1. udp://9.rarbg.com:2710/announce

2. udp://tracker.opentrackr.org:1337/announce

3. udp://tracker.pirateparty.gr:6969/announce

4. udp://tracker.leechers-paradise.org:6969/announce

5. udp://tracker.coppersurfer.tk:6969/announce

6. udp://tracker.zer0day.to:1337/announce

No related torrents found!

TOPlist