Benji 2018 720p NF WEB-DL x264 ESub

Download via magnet link
Added March 16 2018 in Movies > Family
Verified
Size : 762.3 MB
Seeds : 3 , Peers : 8 updated 5 months ago (new update strongly recommended) Refresh Leechers
Hash code : 46e41c97480c0191ef0d591e148503aafaa23ea4


SCREENSHOT





General

Format : Matroska

Format version : Version 4 / Version 2

File size : 762 MiB

Duration : 1 h 27 min

Overall bit rate : 1 220 kb/s



Video

ID : 1

Format : AVC

Format/Info : Advanced Video Codec

Format profile : [email protected]

Format settings : CABAC / 4 Ref Frames

Format settings, CABAC : Yes

Format settings, RefFrames : 4 frames

Codec ID : V_MPEG4/ISO/AVC

Duration : 1 h 27 min

Bit rate : 1 100 kb/s

Width : 1 280 pixels

Height : 532 pixels

Display aspect ratio : 2.40:1

Frame rate mode : Constant

Frame rate : 23.976 (24000/1001) FPS

Color space : YUV

Chroma subsampling : 4:2:0

Bit depth : 8 bits

Scan type : Progressive

Bits/(Pixel*Frame) : 0.067

Stream size : 680 MiB (89%)

Writing library : x264 core 148 r2708 86b7198

Default : Yes

Forced : No



Audio

ID : 2

Format : AAC

Format/Info : Advanced Audio Codec

Format profile : HE-AAC / LC

Format settings : Explicit

Codec ID : A_AAC-2

Duration : 1 h 27 min

Bit rate : 127 kb/s

Channel(s) : 2 channels

Channel positions : Front: L R

Sampling rate : 48.0 kHz / 24.0 kHz

Frame rate : 23.438 FPS (1024 SPF)

Compression mode : Lossy

Stream size : 79.1 MiB (10%)

Language : English

Default : Yes

Forced : No





Text #1

ID : 3

Format : UTF-8

Codec ID : S_TEXT/UTF8

Codec ID/Info : UTF-8 Plain Text

Duration : 1 h 20 min

Bit rate : 44 b/s

Count of elements : 780

Stream size : 26.1 KiB (0%)

Language : English

Default : Yes

Forced : No



Text #2

ID : 4

Format : UTF-8

Codec ID : S_TEXT/UTF8

Codec ID/Info : UTF-8 Plain Text

Duration : 1 h 25 min

Bit rate : 50 b/s

Count of elements : 941

Stream size : 31.2 KiB (0%)

Title : SDH

Language : English

Default : No

Forced : No



Text #3

ID : 5

Format : UTF-8

Codec ID : S_TEXT/UTF8

Codec ID/Info : UTF-8 Plain Text

Duration : 1 h 25 min

Bit rate : 66 b/s

Count of elements : 786

Stream size : 41.4 KiB (0%)

Language : Arabic

Default : No

Forced : No



Text #4

ID : 6

Format : UTF-8

Codec ID : S_TEXT/UTF8

Codec ID/Info : UTF-8 Plain Text

Duration : 1 h 24 min

Bit rate : 39 b/s

Count of elements : 765

Stream size : 24.8 KiB (0%)

Language : Danish

Default : No

Forced : No



Text #5

ID : 7

Format : UTF-8

Codec ID : S_TEXT/UTF8

Codec ID/Info : UTF-8 Plain Text

Duration : 1 h 25 min

Bit rate : 38 b/s

Count of elements : 739

Stream size : 23.8 KiB (0%)

Language : German

Default : No

Forced : No



Text #6

ID : 8

Format : UTF-8

Codec ID : S_TEXT/UTF8

Codec ID/Info : UTF-8 Plain Text

Duration : 1 h 25 min

Bit rate : 67 b/s

Count of elements : 786

Stream size : 42.2 KiB (0%)

Language : Greek

Default : No

Forced : No



Text #7

ID : 9

Format : UTF-8

Codec ID : S_TEXT/UTF8

Codec ID/Info : UTF-8 Plain Text

Duration : 1 h 25 min

Bit rate : 38 b/s

Count of elements : 780

Stream size : 24.3 KiB (0%)

Language : Spanish

Default : No

Forced : No



Text #8

ID : 10

Format : UTF-8

Codec ID : S_TEXT/UTF8

Codec ID/Info : UTF-8 Plain Text

Duration : 1 h 25 min

Bit rate : 40 b/s

Count of elements : 784

Stream size : 25.1 KiB (0%)

Title : European

Language : Spanish

Default : No

Forced : No



Text #9

ID : 11

Format : UTF-8

Codec ID : S_TEXT/UTF8

Codec ID/Info : UTF-8 Plain Text

Duration : 1 h 24 min

Bit rate : 36 b/s

Count of elements : 773

Stream size : 22.4 KiB (0%)

Language : Finnish

Default : No

Forced : No



Text #10

ID : 12

Format : UTF-8

Codec ID : S_TEXT/UTF8

Codec ID/Info : UTF-8 Plain Text

Duration : 1 h 24 min

Bit rate : 35 b/s

Count of elements : 764

Stream size : 22.4 KiB (0%)

Language : French

Default : No

Forced : No



Text #11

ID : 13

Format : UTF-8

Codec ID : S_TEXT/UTF8

Codec ID/Info : UTF-8 Plain Text

Duration : 1 h 25 min

Bit rate : 61 b/s

Count of elements : 787

Stream size : 38.6 KiB (0%)

Language : Hebrew

Default : No

Forced : No



Text #12

ID : 14

Format : UTF-8

Codec ID : S_TEXT/UTF8

Codec ID/Info : UTF-8 Plain Text

Duration : 1 h 22 min

Bit rate : 39 b/s

Count of elements : 768

Stream size : 23.9 KiB (0%)

Language : Italian

Default : No

Forced : No



Text #13

ID : 15

Format : UTF-8

Codec ID : S_TEXT/UTF8

Codec ID/Info : UTF-8 Plain Text

Duration : 1 h 25 min

Bit rate : 34 b/s

Count of elements : 862

Stream size : 21.3 KiB (0%)

Language : Japanese

Default : No

Forced : No



Text #14

ID : 16

Format : UTF-8

Codec ID : S_TEXT/UTF8

Codec ID/Info : UTF-8 Plain Text

Duration : 1 h 25 min

Bit rate : 42 b/s

Count of elements : 787

Stream size : 26.4 KiB (0%)

Language : Korean

Default : No

Forced : No



Text #15

ID : 17

Format : UTF-8

Codec ID : S_TEXT/UTF8

Codec ID/Info : UTF-8 Plain Text

Duration : 1 h 25 min

Bit rate : 37 b/s

Count of elements : 770

Stream size : 23.5 KiB (0%)

Language : Norwegian Bokmal

Default : No

Forced : No



Text #16

ID : 18

Format : UTF-8

Codec ID : S_TEXT/UTF8

Codec ID/Info : UTF-8 Plain Text

Duration : 1 h 24 min

Bit rate : 34 b/s

Count of elements : 731

Stream size : 21.3 KiB (0%)

Language : Dutch

Default : No

Forced : No



Text #17

ID : 19

Format : UTF-8

Codec ID : S_TEXT/UTF8

Codec ID/Info : UTF-8 Plain Text

Duration : 1 h 24 min

Bit rate : 35 b/s

Count of elements : 761

Stream size : 22.4 KiB (0%)

Language : Polish

Default : No

Forced : No



Text #18

ID : 20

Format : UTF-8

Codec ID : S_TEXT/UTF8

Codec ID/Info : UTF-8 Plain Text

Duration : 1 h 24 min

Bit rate : 35 b/s

Count of elements : 692

Stream size : 21.9 KiB (0%)

Language : Portuguese

Default : No

Forced : No



Text #19

ID : 21

Format : UTF-8

Codec ID : S_TEXT/UTF8

Codec ID/Info : UTF-8 Plain Text

Duration : 1 h 25 min

Bit rate : 39 b/s

Count of elements : 783

Stream size : 24.5 KiB (0%)

Title : Brazilian

Language : Portuguese

Default : No

Forced : No



Text #20

ID : 22

Format : UTF-8

Codec ID : S_TEXT/UTF8

Codec ID/Info : UTF-8 Plain Text

Duration : 1 h 24 min

Bit rate : 42 b/s

Count of elements : 782

Stream size : 26.6 KiB (0%)

Language : Romanian

Default : No

Forced : No



Text #21

ID : 23

Format : UTF-8

Codec ID : S_TEXT/UTF8

Codec ID/Info : UTF-8 Plain Text

Duration : 1 h 24 min

Bit rate : 39 b/s

Count of elements : 780

Stream size : 24.6 KiB (0%)

Language : Swedish

Default : No

Forced : No



Text #22

ID : 24

Format : UTF-8

Codec ID : S_TEXT/UTF8

Codec ID/Info : UTF-8 Plain Text

Duration : 1 h 25 min

Bit rate : 98 b/s

Count of elements : 787

Stream size : 61.8 KiB (0%)

Language : Thai

Default : No

Forced : No



Text #23

ID : 25

Format : UTF-8

Codec ID : S_TEXT/UTF8

Codec ID/Info : UTF-8 Plain Text

Duration : 1 h 24 min

Bit rate : 39 b/s

Count of elements : 777

Stream size : 24.7 KiB (0%)

Language : Turkish

Default : No

Forced : No



Text #24

ID : 26

Format : UTF-8

Codec ID : S_TEXT/UTF8

Codec ID/Info : UTF-8 Plain Text

Duration : 1 h 25 min

Bit rate : 36 b/s

Count of elements : 787

Stream size : 22.5 KiB (0%)

Title : Simplified

Language : Chinese

Default : No

Forced : No



Text #25

ID : 27

Format : UTF-8

Codec ID : S_TEXT/UTF8

Codec ID/Info : UTF-8 Plain Text

Duration : 1 h 25 min

Bit rate : 33 b/s

Count of elements : 705

Stream size : 20.7 KiB (0%)

Title : Traditional

Language : Chinese

Default : No

Forced : No







https://pichub.site/image/f9C2u

https://pichub.site/image/f9tks

https://pichub.site/image/f9zxB

https://pichub.site/image/f98TY

https://pichub.site/image/f9Kmt

https://pichub.site/image/f9BD6

Internal Files
761.67 MB Benji 2018 720p NF WEB-DL x264 ESub.mkv

1. udp://9.rarbg.com:2710/announce

2. udp://tracker.opentrackr.org:1337/announce

3. udp://tracker.pirateparty.gr:6969/announce

4. udp://tracker.leechers-paradise.org:6969/announce

5. udp://tracker.coppersurfer.tk:6969/announce

6. udp://tracker.zer0day.to:1337/announce

name size seeds peers added
Benji (2018) [WEBRip] [720p] [YTS AM] posted in movies > drama 742.99 MB 903 880 3 months
Benji (Family 2018) Gabriel Bateman 720p HD [WWRG] posted in movies > family 966.5 MB 1 1 4 months
Benji (2018) 720p HDRip x264 AAC by Full4movies posted in movies > misc 741 MB 1 5 3 months
TOPlist