Rocket Raja (Thikka) 2016 Hindi Dubbed 720p WEB-DL x264 AAC { TaRa }.mkv

Download via magnet link
Added February 13 2018 in Movies > Drama
Verified
Size : 1.03 GB
Seeds : 1 , Peers : 11 updated 6 months ago (new update strongly recommended) Refresh Leechers
Hash code : 158ed5a0fca7603c2c2c9d3fd3735255a10dc212


Rocket Raja (Thikka) 2016 Hindi Dubbed 720p WEB-DL x264 AAC { TaRa }.mkv

SCREENSHOT

SCREENSHOT

===================================================================

General

Complete name : Rocket Raja (Thikka) 2016 Hindi Dubbed 720p WEB-DL x264 AAC { TaRa }.mkv

Format : Matroska

Format version : Version 4 / Version 2

File size : 1.03 GiB

Duration : 1 h 59 min

Overall bit rate : 1 231 kb/s

===================================================================

Video

ID : 1

Format : AVC

Format/Info : Advanced Video Codec

Format profile : [email protected]

Format settings, CABAC : Yes

Format settings, ReFrames : 4 frames

Codec ID : V_MPEG4/ISO/AVC

Duration : 1 h 59 min

Bit rate : 1 100 kb/s

Width : 1 280 pixels

Height : 544 pixels

Display aspect ratio : 2.35:1

Frame rate mode : Constant

Frame rate : 25.000 FPS

Color space : YUV

Chroma subsampling : 4:2:0

Bit depth : 8 bits

Scan type : Progressive

Bits/(Pixel*Frame) : 0.063

Stream size : 942 MiB (90%)

Title : .....::::: TaRa :::::.....

Language : Hindi

Default : Yes

Forced : Yes

===================================================================

Audio

ID : 2

Format : AAC

Format/Info : Advanced Audio Codec

Format profile : LC

Codec ID : A_AAC

Duration : 1 h 59 min

Bit rate : 126 kb/s

Channel(s) : 2 channels

Channel positions : Front: L R

Sampling rate : 44.1 kHz

Frame rate : 43.066 FPS (1024 spf)

Compression mode : Lossy

Stream size : 107 MiB (10%)

Title : .....::::: TaRa :::::.....

Language : Hindi

Default : Yes

Forced : No

===================================================================



SCREENSHOT

SCREENSHOT

SCREENSHOT

SCREENSHOT

SCREENSHOT

SCREENSHOT

SCREENSHOT

SCREENSHOT

SCREENSHOT

SCREENSHOT

SCREENSHOT

SCREENSHOT

SCREENSHOT

SCREENSHOT

SCREENSHOT

SCREENSHOT

SCREENSHOT

SCREENSHOT

SCREENSHOT

SCREENSHOT

SCREENSHOT



SCREENSHOT

SCREENSHOT

SCREENSHOT

SCREENSHOT

SCREENSHOT

SCREENSHOT



SCREENSHOT



Internal Files
793 Byte www.hdsector.to.txt

6.53 KB www.hdsector.to.nfo

151.3 KB Thikka-Movie-Release-Date-Wallpapers-3.jpg

167.04 KB www.hdsector.to.jpg

1.03 GB Rocket Raja (Thikka) 2016 Hindi Dubbed 720p WEB-DL x264 AAC { TaRa }.mkv

1. udp://9.rarbg.com:2710/announce

2. udp://tracker.opentrackr.org:1337/announce

3. udp://tracker.pirateparty.gr:6969/announce

4. udp://tracker.leechers-paradise.org:6969/announce

5. udp://tracker.coppersurfer.tk:6969/announce

6. udp://tracker.zer0day.to:1337/announce

No related torrents found!

TOPlist