Three.Billboards.Outside.Ebbing.Missouri.2017.WEB-DL.XviD.MP3-FGT

Download via magnet link
Added February 13 2018 in Movies > Misc
Verified
Size : 1.37 GB
Seeds : 106 , Peers : 177 updated 6 months ago (new update strongly recommended) Refresh Leechers
Hash code : 8d9d246eae59e579f8b0cef141c3a1e503bc53cf
SCREENSHOT

THREE BILLBOARDS OUTSIDE EBBING| MISSOURI is a darkly comic drama from Academy Award nominee Martin McDonagh (In Bruges). After months have passed without a culprit in her daughter's murder case| Mildred Hayes (Academy Award winner Frances McDormand) makes a bold move| painting three signs leading into her town with a controversial message directed at William Willoughby (Academy Award nominee Woody Harrelson)| the town's revered chief of police. When his second-in-command Officer Dixon (Sam Rockwell)| an immature mother's boy with a penchant for violence| gets involved| the battle between Mildred and Ebbing's law enforcement is only exacerbated.



IMDB Rating: 8.3/10 from 96852 users Updated : 2018-02-13


Rotten Rating: 8.5/10


RottenTomatoes: fresh! 93% audience liked it! 87%


Genres: Crime , Drama


Actors: Frances McDormand , Woody Harrelson , Sam Rockwell , Caleb Landry Jones , Kerry Condon , Alejandro Barrios , Jason Redford , Darrell Britt-Gibson , Abbie Cornish , Riya May Atwood , Selah Atwood , Lucas Hedges , Zeljko Ivanek , Amanda Warren , Malaya Rivera Drew


Director: Martin McDonagh



Video


ID : 0


Format : MPEG-4 Visual


Format profile : [email protected]
Format settings, BVOP : No


Format settings, QPel : No


Format settings, GMC : No warppoints


Format settings, Matrix : Default (H.263)


Codec ID : XVID


Codec ID/Hint : XviD


Duration : 1 h 55 min


Bit rate : 1 489 kb/s


Width : 720 pixels


Height : 304 pixels


Display aspect ratio : 2.40:1


Frame rate : 24.000 FPS


Color space : YUV


Chroma subsampling : 4:2:0


Bit depth : 8 bits


Scan type : Progressive


Compression mode : Lossy


Bits/(Pixel*Frame) : 0.283


Stream size : 1.20 GiB (88%)


Writing library : Lavc58.1.100



Audio


ID : 1


Format : MPEG Audio


Format version : Version 1


Format profile : Layer 3


Format settings : Joint stereo / MS Stereo


Codec ID : 55


Codec ID/Hint : MP3


Duration : 1 h 55 min


Bit rate mode : Constant


Bit rate : 192 kb/s


Channel(s) : 2 channels


Sampling rate : 48.0 kHz


Compression mode : Lossy


Stream size : 158 MiB (11%)


Alignment : Aligned on interleaves


Interleave, duration : 24 ms (0.58 video frame)


Interleave, preload duration : 504 ms


Writing library : LAMEÿÿÿæVa¡ ÂÀ

SCREENSHOT
SCREENSHOT
Internal Files
31 Byte RARBG.txt

1.37 GB Three.Billboards.Outside.Ebbing.Missouri.2017.WEB-DL.XviD.MP3-FGT.avi

1. udp://9.rarbg.com:2710/announce

2. udp://tracker.opentrackr.org:1337/announce

3. udp://tracker.pirateparty.gr:6969/announce

4. udp://tracker.leechers-paradise.org:6969/announce

5. udp://tracker.coppersurfer.tk:6969/announce

6. udp://tracker.zer0day.to:1337/announce

No related torrents found!

TOPlist