Murder On The Orient Express 2017 720p Esub BluRay 5 1 Dual Audio English Hindi GOPISAHI

Download via magnet link
Added February 10 2018 in Movies > Adventure
Verified
Size : 629.3 MB
Seeds : 0 , Peers : 1 updated 6 months ago (new update strongly recommended) Refresh Leechers
Hash code : 35fad9ef2049e9b539829e5ee68ea6664c92997b
SCREENSHOT

Format : Matroska

Format version : Version 4 / Version 2

File size : 628 MiB

Duration : 1 h 53 min

Overall bit rate : 771 kb/s

Movie name : Murder On The Orient Express 2017 GOPISAHI



Video

Format : AVC

Codec ID : V_MPEG4/ISO/AVC

Duration : 1 h 53 min

Bit rate : 600 kb/s

Width : 1 280 pixels

Height : 536 pixels

Display aspect ratio : 2.40:1

Frame rate mode : Constant

Frame rate : 23.976 (24000/1001) FPS

Stream size : 489 MiB (78%)

Title : GOPISAHI

Writing library : x264 core 155 r2893 b00bcaf

Matrix coefficients : BT.709



Audio #1

Format : AAC

Duration : 1 h 53 min

Bit rate : 83.5 kb/s

Channel(s) : 6 channels

Channel positions : Front: L C R, Side: L R, LFE

Sampling rate : 44.1 kHz

Frame rate : 43.066 FPS (1024 SPF)

Stream size : 68.0 MiB (11%)

Language : English



Audio #2

Format : AAC

Duration : 1 h 53 min

Bit rate : 84.6 kb/s

Channel(s) : 6 channels

Channel positions : Front: L C R, Side: L R, LFE

Sampling rate : 44.1 kHz

Frame rate : 43.066 FPS (1024 SPF)

Stream size : 68.9 MiB (11%)

Language : Hindi



Text

Language : English

SCREENSHOT

SCREENSHOT

SCREENSHOT
Internal Files
92 Byte gopisahi13.blogspot.in.txt

628.15 MB Murder On The Orient Express 2017 GOPISAHI.mkv

1. udp://9.rarbg.com:2710/announce

2. udp://tracker.opentrackr.org:1337/announce

3. udp://tracker.pirateparty.gr:6969/announce

4. udp://tracker.leechers-paradise.org:6969/announce

5. udp://tracker.coppersurfer.tk:6969/announce

6. udp://tracker.zer0day.to:1337/announce

TOPlist