The Other Boleyn Girl 2008 720p Esub BlyRay Dual Audio English Hindi GOPISAHI

Download via magnet link
Added February 3 2018 in Movies > Adventure
Verified
Size : 553.3 MB
Seeds : 1 , Peers : 0 updated 6 months ago (new update strongly recommended) Refresh Leechers
Hash code : 7602f1dfd7a87d62ed77fb3c5dd6ad9cc7eb12d7
SCREENSHOT

Format : Matroska

Format version : Version 4 / Version 2

File size : 552 MiB

Duration : 1 h 55 min

Overall bit rate : 670 kb/s

Movie name : The Other Boleyn Girl 2008



Video

Format : AVC

Codec ID : V_MPEG4/ISO/AVC

Duration : 1 h 55 min

Bit rate : 500 kb/s

Width : 1 280 pixels

Height : 694 pixels

Display aspect ratio : 1.85:1

Frame rate mode : Constant

Frame rate : 23.976 (24000/1001) FPS

Stream size : 412 MiB (75%)

Title : GOPISAHI

Writing library : x264 core 155 r2893 b00bcaf



Audio #1

Format : AAC

Duration : 1 h 55 min

Bit rate : 85.9 kb/s

Channel(s) : 6 channels

Channel positions : Front: L C R, Side: L R, LFE

Sampling rate : 44.1 kHz

Frame rate : 43.066 FPS (1024 SPF)

Stream size : 70.8 MiB (13%)

Language : Hindi



Audio #2

Format : AAC

Duration : 1 h 55 min

Bit rate : 81.2 kb/s

Channel(s) : 6 channels

Channel positions : Front: L C R, Side: L R, LFE

Sampling rate : 44.1 kHz

Frame rate : 43.066 FPS (1024 SPF)

Compression mode : Lossy

Stream size : 66.9 MiB (12%)

Language : English



Text

Language : English

SCREENSHOT

SCREENSHOT

SCREENSHOT
Internal Files
552.42 MB The Other Boleyn Girl 2008 720p Esub BlyRay Dual Audio English Hindi GOPISAHI.mkv

1. udp://9.rarbg.com:2710/announce

2. udp://tracker.opentrackr.org:1337/announce

3. udp://tracker.pirateparty.gr:6969/announce

4. udp://tracker.leechers-paradise.org:6969/announce

5. udp://tracker.coppersurfer.tk:6969/announce

6. udp://tracker.zer0day.to:1337/announce

TOPlist