Harry Potter e la Pietra Filosofale (2001) BDRip 2160p HEVC ENG DTS-X 7 1 ITA ENG AC3 PirateMKV mkv

Download via magnet link
Added February 1 2018 in Movies > Adventure
Verified
Size : 25.26 GB
Seeds : 16 , Peers : 33 updated 6 months ago (new update strongly recommended) Refresh Leechers
Hash code : b7df11835aa18614775e5879bc49624f9d93b8ef
SCREENSHOT



SCREENSHOT



SCREENSHOT



Harry Potter e la Pietra Filosofale



SCREENSHOT



SCREENSHOT



Titolo: Harry Potter and the Sorcerer's Stone

Nazione: UK, USA

Anno: 2001

Genere: Adventure, Family, Fantasy

Durata: 152 min

Regia: Chris Columbus

Voti: IMDb (7.6/10), Rotten Tomatoes (80%), Metacritic (64/100)

Cast: Richard Harris, Maggie Smith, Robbie Coltrane, Saunders Triplets




SCREENSHOT



L'orfanello Harry Potter è stato allevato dagli zii, che lo detestano. Un giorno, il gigantesco Rubeus Hagrid gli rivela che entrambi i suoi scomparsi genitori erano due potenti maghi, e che lui stesso possiede dei poteri soprannaturali. Harry accetta perciò con gioia di frequentare i corsi di magia nella scuola di Hogwarts, dove vivrà esperienze straordinarie...



SCREENSHOT



SCREENSHOT

SCREENSHOT



SCREENSHOT



General

Unique ID : 73551004829890877890585376436838110740 (0x375568840017D55D20F5E5502F669614)

Complete name : C:UsersAdministratorDownloadsNewsHarry Potter E La Pietra Filosofale UHDHarry Potter e la Pietra Filosofale (2001) BDRip 2160p HEVC ENG DTS-X 7.1 ITA ENG AC3 PirateMKV.mkv

Format : Matroska

Format version : Version 4 / Version 2

File size : 25.3 GiB

Duration : 2 h 32 min

Overall bit rate : 23.7 Mb/s

Movie name : Harry Potter e la Pietra Filosofale (2001) - PirateMKV

Encoded date : UTC 2018-01-06 10:42:22

Writing application : mkvmerge v19.0.0 ('Brave Captain') 64-bit

Writing library : libebml v1.3.5 + libmatroska v1.4.8 / Lavf58.0.102



Video

ID : 1

Format : HEVC

Format/Info : High Efficiency Video Coding

Format profile : Main [email protected]@High

Codec ID : V_MPEGH/ISO/HEVC

Duration : 2 h 32 min

Bit rate : 18.3 Mb/s

Width : 3 840 pixels

Height : 2 160 pixels

Display aspect ratio : 16:9

Frame rate mode : Constant

Frame rate : 23.976 (24000/1001) FPS

Color space : YUV

Chroma subsampling : 4:2:0 (Type 2)

Bit depth : 10 bits

Bits/(Pixel*Frame) : 0.092

Stream size : 19.5 GiB (77%)

Writing library : x265 2.5+32-0bc372b7ca78:[Windows][GCC 7.1.0][64 bit] 10bit

Encoding settings : cpuid=1173503 / frame-threads=3 / numa-pools=8 / wpp / no-pmode / no-pme / no-psnr / no-ssim / log-level=2 / input-csp=1 / input-res=3840x2160 / interlace=0 / total-frames=0 / level-idc=51 / high-tier=1 / uhd-bd=1 / ref=5 / no-allow-non-conformance / repeat-headers / annexb / aud / hrd / info / hash=0 / no-temporal-layers / no-open-gop / min-keyint=1 / keyint=24 / bframes=8 / b-adapt=2 / b-pyramid / bframe-bias=0 / rc-lookahead=40 / lookahead-slices=0 / scenecut=40 / no-intra-refresh / ctu=64 / min-cu-size=8 / no-rect / no-amp / max-tu-size=32 / tu-inter-depth=4 / tu-intra-depth=4 / limit-tu=4 / rdoq-level=0 / dynamic-rd=0.00 / no-ssim-rd / signhide / no-tskip / nr-intra=0 / nr-inter=0 / no-constrained-intra / no-strong-intra-smoothing / max-merge=3 / limit-refs=3 / limit-modes / me=2 / subme=5 / merange=57 / temporal-mvp / weightp / weightb / no-analyze-src-pics / deblock=-3:-3 / no-sao / no-sao-non-deblock / rd=4 / no-early-skip / rskip / fast-intra / no-tskip-fast / no-cu-lossless / b-intra / no-splitrd-skip / rdpenalty=0 / psy-rd=2.00 / psy-rdoq=0.00 / no-rd-refine / analysis-reuse-mode=0 / no-lossless / cbqpoffs=-3 / crqpoffs=-3 / rc=crf / crf=19.5 / qcomp=0.70 / qpstep=4 / stats-write=0 / stats-read=0 / vbv-maxrate=160000 / vbv-bufsize=160000 / vbv-init=0.9 / crf-max=0.0 / crf-min=0.0 / ipratio=1.40 / pbratio=1.30 / aq-mode=3 / aq-strength=0.70 / no-cutree / zone-count=0 / no-strict-cbr / qg-size=32 / no-rc-grain / qpmax=69 / qpmin=0 / no-const-vbv / sar=1 / overscan=0 / videoformat=5 / range=0 / colorprim=9 / transfer=16 / colormatrix=9 / chromaloc=1 / chromaloc-top=2 / chromaloc-bottom=2 / display-window=0 / master-display=G(13250,34500)B(7500,3000)R(34000,16000)WP(15635,16450)L(40000000,50) / max-cll=0,0 / min-luma=0 / max-luma=1023 / log2-max-poc-lsb=8 / vui-timing-info / vui-hrd-info / slices=1 / opt-qp-pps / opt-ref-list-length-pps / no-multi-pass-opt-rps / scenecut-bias=0.05 / no-opt-cu-delta-qp / no-aq-motion / hdr / hdr-opt / no-dhdr10-opt / analysis-reuse-level=5 / scale-factor=0 / refine-intra=0 / refine-inter=0 / refine-mv=0 / no-limit-sao / ctu-info=0

Language : English

Default : Yes

Forced : No

Color range : Limited

Color primaries : BT.2020

Transfer characteristics : SMPTE ST 2084

Matrix coefficients : BT.2020 non-constant

Mastering display color primaries : R: x=0.680000 y=0.320000, G: x=0.265000 y=0.690000, B: x=0.150000 y=0.060000, White point: x=0.312700 y=0.329000

Mastering display luminance : min: 0.0050 cd/m2, max: 4000.0000 cd/m2



Audio #1

ID : 2

Format : AC-3

Format/Info : Audio Coding 3

Format settings, Endianness : Big

Codec ID : A_AC3

Duration : 2 h 32 min

Bit rate mode : Constant

Bit rate : 448 kb/s

Channel(s) : 6 channels

Channel positions : Front: L C R, Side: L R, LFE

Sampling rate : 48.0 kHz

Frame rate : 31.250 FPS (1536 SPF)

Bit depth : 16 bits

Compression mode : Lossy

Stream size : 488 MiB (2%)

Title : AC3 5.1

Language : Italian

Service kind : Complete Main

Default : Yes

Forced : No



Audio #2

ID : 3

Format : DTS

Format/Info : Digital Theater Systems

Format profile : X / MA / Core

Mode : 16

Format settings, Endianness : Big

Codec ID : A_DTS

Duration : 2 h 32 min

Bit rate mode : Variable / Variable / Constant

Bit rate : 4 342 kb/s / 4 342 kb/s / 1 509 kb/s

Channel(s) : Object Based / 8 channels / 6 channels

Channel positions : Object Based / Front: L C R, Side: L R, Back: L R, LFE / Front: L C R, Side: L R, LFE

Sampling rate : / 48.0 kHz / 48.0 kHz

Frame rate : 93.750 FPS (512 SPF)

Bit depth : / 24 bits / 24 bits

Compression mode : / Lossless / Lossy

Stream size : 4.62 GiB (18%)

Title : DTS-X 7.1

Language : English

Default : No

Forced : No



Audio #3

ID : 4

Format : AC-3

Format/Info : Audio Coding 3

Format settings, Endianness : Big

Codec ID : A_AC3

Duration : 2 h 32 min

Bit rate mode : Constant

Bit rate : 640 kb/s

Channel(s) : 6 channels

Channel positions : Front: L C R, Side: L R, LFE

Sampling rate : 48.0 kHz

Frame rate : 31.250 FPS (1536 SPF)

Bit depth : 16 bits

Compression mode : Lossy

Stream size : 697 MiB (3%)

Title : AC3 5.1

Language : English

Service kind : Complete Main

Default : No

Forced : No



Text #1

ID : 5

Format : UTF-8

Codec ID : S_TEXT/UTF8

Codec ID/Info : UTF-8 Plain Text

Duration : 2 h 28 min

Bit rate : 0 b/s

Count of elements : 19

Stream size : 428 Bytes (0%)

Title : Forced

Language : Italian

Default : Yes

Forced : Yes



Text #2

ID : 6

Format : UTF-8

Codec ID : S_TEXT/UTF8

Codec ID/Info : UTF-8 Plain Text

Duration : 2 h 30 min

Bit rate : 45 b/s

Count of elements : 1333

Stream size : 50.3 KiB (0%)

Title : SDH

Language : Italian

Default : No

Forced : No



Text #3

ID : 7

Format : UTF-8

Codec ID : S_TEXT/UTF8

Codec ID/Info : UTF-8 Plain Text

Duration : 2 h 30 min

Bit rate : 42 b/s

Count of elements : 1302

Stream size : 46.8 KiB (0%)

Title : SDH

Language : English

Default : No

Forced : No



Menu

00:00:00.000 : en:00:00:00.000

00:04:05.412 : en:00:04:05.412

00:08:11.157 : en:00:08:11.157

00:12:17.403 : en:00:12:17.403

00:18:25.271 : en:00:18:25.271

00:21:43.636 : en:00:21:43.636

00:24:41.647 : en:00:24:41.647

00:28:49.561 : en:00:28:49.561

00:31:05.197 : en:00:31:05.197

00:34:05.543 : en:00:34:05.543

00:37:49.601 : en:00:37:49.601

00:41:29.487 : en:00:41:29.487

00:46:13.437 : en:00:46:13.437

00:50:29.026 : en:00:50:29.026

00:55:04.301 : en:00:55:04.301

01:00:55.652 : en:01:00:55.652

01:03:43.987 : en:01:03:43.987

01:07:48.231 : en:01:07:48.231

01:13:49.258 : en:01:13:49.258

01:20:17.980 : en:01:20:17.980

01:23:54.529 : en:01:23:54.529

01:28:32.474 : en:01:28:32.474

01:31:42.497 : en:01:31:42.497

01:36:42.630 : en:01:36:42.630

01:42:34.815 : en:01:42:34.815

01:49:05.038 : en:01:49:05.038

01:53:21.628 : en:01:53:21.628

01:58:09.749 : en:01:58:09.749

02:03:44.751 : en:02:03:44.751

02:06:56.108 : en:02:06:56.108

02:10:55.347 : en:02:10:55.347

02:14:18.884 : en:02:14:18.884

02:17:29.575 : en:02:17:29.575

02:21:44.663 : en:02:21:44.663

02:24:10.809 : en:02:24:10.809



SCREENSHOT



ORARIO: SEMPRE ATTIVO

BANDA: 300KB

Credits PirateMKV




SCREENSHOT
Internal Files
25.26 GB Harry Potter e la Pietra Filosofale (2001) BDRip 2160p HEVC ENG DTS-X 7.1 ITA ENG AC3 PirateMKV.mkv

1. udp://9.rarbg.com:2710/announce

2. udp://tracker.opentrackr.org:1337/announce

3. udp://tracker.pirateparty.gr:6969/announce

4. udp://tracker.leechers-paradise.org:6969/announce

5. udp://tracker.coppersurfer.tk:6969/announce

6. udp://tracker.zer0day.to:1337/announce

TOPlist