Taking Earth 2017 720p WEB-DL X264 AAC

Download via magnet link
Added November 17 2017 in Movies > Sci-Fi
Verified
Size : 1.16 GB
Seeds : 1 , Peers : 7 updated 8 months ago (new update strongly recommended) Refresh Leechers
Hash code : dd0103986f9f38f8f2f28368cfb971db531420f2


SCREENSHOT



General

Format : Matroska

Format version : Version 4 / Version 2

File size : 1.15 GiB

Duration : 1 h 39 min

Overall bit rate mode : Variable

Overall bit rate : 1 660 kb/s



Video

ID : 1

Format : AVC

Format/Info : Advanced Video Codec

Format profile : [email protected]

Format settings : 1 Ref Frames

Format settings, CABAC : No

Format settings, RefFrames : 1 frame

Codec ID : V_MPEG4/ISO/AVC

Duration : 1 h 39 min

Bit rate mode : Variable

Bit rate : 1 530 kb/s

Maximum bit rate : 1 500 kb/s

Width : 1 280 pixels

Height : 720 pixels

Display aspect ratio : 2.35:1

Frame rate mode : Constant

Frame rate : 24.000 FPS

Color space : YUV

Chroma subsampling : 4:2:0

Bit depth : 8 bits

Scan type : Progressive

Bits/(Pixel*Frame) : 0.069

Stream size : 1.06 GiB (92%)

Title : Taking Earth 2017 720p WEB-DL X264 AAC

Language : English

Default : Yes

Forced : No



Audio

ID : 2

Format : AAC

Format/Info : Advanced Audio Codec

Format profile : LC

Codec ID : A_AAC-2

Duration : 1 h 39 min

Bit rate : 128 kb/s

Channel(s) : 2 channels

Channel positions : Front: L R

Sampling rate : 44.1 kHz

Frame rate : 43.066 FPS (1024 SPF)

Compression mode : Lossy

Stream size : 91.2 MiB (8%)

Language : English

Default : Yes

Forced : No



Menu

00:00:00.000 : en:Chapter 1

00:09:24.564 : en:Chapter 2

00:21:07.266 : en:Chapter 3

00:30:48.847 : en:Chapter 4

00:41:34.492 : en:Chapter 5

00:49:20.957 : en:Chapter 6

01:01:11.667 : en:Chapter 7

01:11:10.264 : en:Chapter 8

01:20:41.834 : en:Chapter 9

01:29:48.380 : en:Chapter 10

01:35:13.704 : en:Chapter 11







SCREENSHOT

SCREENSHOT

SCREENSHOT

SCREENSHOT

SCREENSHOT

SCREENSHOT

SCREENSHOT

SCREENSHOT

SCREENSHOT

SCREENSHOT

Internal Files
1.15 GB Taking Earth 2017 720p WEB-DL X264 AAC.mkv

1. udp://9.rarbg.com:2710/announce

2. udp://tracker.opentrackr.org:1337/announce

3. udp://tracker.pirateparty.gr:6969/announce

4. udp://tracker.leechers-paradise.org:6969/announce

5. udp://tracker.coppersurfer.tk:6969/announce

6. udp://tracker.zer0day.to:1337/announce

name size seeds peers added
Taking Earth (2017).720p.H264.italian.english.Ac3-5.1.sub.ita.NUita.MIRCrew posted in movies > sci-fi 2.22 GB 2 74 4 months
TOPlist