The Humanity Bureau 2017 1080p WEB-DL DD 5 1 x264

Download via magnet link
Added November 15 2017 in Movies > Sci-Fi
Verified
Size : 1.43 GB
Seeds : 2 , Peers : 8 updated 8 months ago (new update strongly recommended) Refresh Leechers
Hash code : f4e954f5122e7827416a32df029e6ded1e09b33f


SCREENSHOT



General

Format : Matroska

Format version : Version 4 / Version 2

File size : 1.43 GiB

Duration : 1 h 34 min

Overall bit rate : 2 163 kb/s



Video

ID : 1

Format : AVC

Format/Info : Advanced Video Codec

Format profile : [email protected]

Format settings : CABAC / 4 Ref Frames

Format settings, CABAC : Yes

Format settings, RefFrames : 4 frames

Codec ID : V_MPEG4/ISO/AVC

Duration : 1 h 34 min

Bit rate : 2 000 kb/s

Width : 1 920 pixels

Height : 1 072 pixels

Display aspect ratio : 16:9

Frame rate mode : Constant

Frame rate : 23.976 (23976/1000) FPS

Color space : YUV

Chroma subsampling : 4:2:0

Bit depth : 8 bits

Scan type : Progressive

Bits/(Pixel*Frame) : 0.041

Stream size : 1.30 GiB (91%)

Writing library : x264 core 148 r2643 5c65704

Language : English

Default : Yes

Forced : No



Audio

ID : 2

Format : AC-3

Format/Info : Audio Coding 3

Format settings, Endianness : Big

Codec ID : A_AC3

Duration : 1 h 34 min

Bit rate mode : Constant

Bit rate : 192 kb/s

Channel(s) : 6 channels

Channel positions : Front: L C R, Side: L R, LFE

Sampling rate : 48.0 kHz

Frame rate : 31.250 FPS (1536 SPF)

Bit depth : 16 bits

Compression mode : Lossy

Stream size : 130 MiB (9%)

Language : English

Service kind : Complete Main

Default : Yes

Forced : No









SCREENSHOT

SCREENSHOT

SCREENSHOT

SCREENSHOT

SCREENSHOT

SCREENSHOT

SCREENSHOT

Internal Files
1.43 GB The Humanity Bureau 2017 1080p WEB-DL DD 5.1 x264.mkv

1. udp://9.rarbg.com:2710/announce

2. udp://tracker.opentrackr.org:1337/announce

3. udp://tracker.pirateparty.gr:6969/announce

4. udp://tracker.leechers-paradise.org:6969/announce

5. udp://tracker.coppersurfer.tk:6969/announce

6. udp://tracker.zer0day.to:1337/announce

TOPlist