Sonu Ke Titu Ki Sweety (2018) DvDRip 720p Hindi x264 ACC 5 1 - LatestHDMovies mkv

Download via magnet link
Added July 13 2018 in Movies > Drama
Verified
Size : 1.18 GB
Seeds : 1 , Peers : 0 updated 1 month ago (new update strongly recommended) Refresh Leechers
Hash code : c580a34b3ac0de35eeec494e6bdeef327b7d8f57
SCREENSHOT









https://oload.stream/f/wr9VKgBLOHY/vlc-record-2018-07-13-04h24m24s-Available_%40_LatestHDMovies.Org-.mp4







Visit OUR Website To Watch Online & Direct Download Easy!

https://latesthdmovies.org







SCREENSHOT







General

Unique ID : 132499644711610731707404111517487493267 (0x63AE80DAB2D8B2F160F8E8DBAF887093)

Complete name : C:UsersSHAHIDDownloadsVideoSonu Ke Titu Ki Sweety (2018) DvDRip 720p Hindi x264 ACC 5.1 - LatestHDMovies.mkv

Format : Matroska

Format version : Version 4 / Version 2

File size : 1.18 GiB

Duration : 2 h 18 min

Overall bit rate : 1 217 kb/s

Movie name : Available @ LatestHDMovies.Org

Encoded date : UTC 2018-07-12 01:42:36

Writing application : mkvmerge v24.0.0 ('Beyond The Pale') 32-bit

Writing library : libebml v1.3.6 + libmatroska v1.4.9

Cover : Yes

Attachments : Cover.jpg



Video

ID : 1

Format : AVC

Format/Info : Advanced Video Codec

Format profile : [email protected]

Format settings : CABAC / 5 Ref Frames

Format settings, CABAC : Yes

Format settings, ReFrames : 5 frames

Codec ID : V_MPEG4/ISO/AVC

Duration : 2 h 18 min

Bit rate : 1 088 kb/s

Width : 1 280 pixels

Height : 514 pixels

Display aspect ratio : 2.490

Frame rate mode : Constant

Frame rate : 23.976 (24000/1001) FPS

Color space : YUV

Chroma subsampling : 4:2:0

Bit depth : 8 bits

Scan type : Progressive

Bits/(Pixel*Frame) : 0.069

Stream size : 1.05 GiB (89%)

Title : Available @ LatestHDMovies.Org

Writing library : x264 core 148 r2643 5c65704

Encoding settings : cabac=1 / ref=5 / deblock=1:0:0 / analyse=0x3:0x113 / me=hex / subme=7 / psy=1 / psy_rd=1.00:0.00 / mixed_ref=1 / me_range=16 / chroma_me=1 / trellis=1 / 8x8dct=1 / cqm=0 / deadzone=21,11 / fast_pskip=1 / chroma_qp_offset=-2 / threads=8 / lookahead_threads=8 / sliced_threads=1 / slices=8 / nr=0 / decimate=1 / interlaced=0 / bluray_compat=0 / constrained_intra=0 / bframes=0 / weightp=2 / keyint=250 / keyint_min=23 / scenecut=40 / intra_refresh=0 / rc=abr / mbtree=0 / bitrate=1088 / ratetol=1.0 / qcomp=0.60 / qpmin=0 / qpmax=69 / qpstep=4 / ip_ratio=1.40 / aq=1:1.00

Language : Hindi

Default : Yes

Forced : No



Audio

ID : 2

Format : AAC

Format/Info : Advanced Audio Codec

Format profile : LC

Codec ID : A_AAC-2

Duration : 2 h 18 min

Bit rate : 128 kb/s

Channel(s) : 2 channels

Channel positions : Front: L R

Sampling rate : 48.0 kHz

Frame rate : 46.875 FPS (1024 SPF)

Compression mode : Lossy

Delay relative to video : -43 ms

Stream size : 127 MiB (11%)

Title : Available @ LatestHDMovies.Org

Language : Hindi

Default : Yes

Forced : No





SCREENSHOT

SCREENSHOT SCREENSHOT SCREENSHOT SCREENSHOT SCREENSHOT SCREENSHOT SCREENSHOT SCREENSHOT SCREENSHOT SCREENSHOT SCREENSHOT SCREENSHOT
Internal Files
Sonu Ke Titu Ki Sweety (2018) DvDRip 720p Hindi x264 ACC 5.1 - LatestHDMovies.mkv   1.18 GB

1. udp://9.rarbg.com:2710/announce

2. udp://tracker.opentrackr.org:1337/announce

3. udp://tracker.pirateparty.gr:6969/announce

4. udp://tracker.leechers-paradise.org:6969/announce

5. udp://tracker.coppersurfer.tk:6969/announce

6. udp://tracker.zer0day.to:1337/announce

TOPlist