Monster X 2017 DVDRip AAC 2 0 x264 [MW]

Download via magnet link
Added July 10 2018 in Movies > Horror
Verified
Size : 739.49 MB
Seeds : 2 , Peers : 3 updated 1 month ago (new update strongly recommended) Refresh Leechers
Hash code : cd34861566b29371f450ed234561f71bf7dc22bb


SCREENSHOT





General

Format : Matroska

Format version : Version 4 / Version 2

File size : 739 MiB

Duration : 1 h 7 min

Overall bit rate : 1 533 kb/s



Video

ID : 1

Format : AVC

Format/Info : Advanced Video Codec

Format profile : [email protected]

Format settings : CABAC / 5 Ref Frames

Format settings, CABAC : Yes

Format settings, RefFrames : 5 frames

Codec ID : V_MPEG4/ISO/AVC

Duration : 1 h 7 min

Bit rate : 1 403 kb/s

Nominal bit rate : 1 500 kb/s

Width : 720 pixels

Height : 306 pixels

Display aspect ratio : 2.35:1

Frame rate mode : Constant

Frame rate : 25.000 FPS

Color space : YUV

Chroma subsampling : 4:2:0

Bit depth : 8 bits

Scan type : Progressive

Bits/(Pixel*Frame) : 0.255

Stream size : 677 MiB (92%)

Writing library : x264 core 155 r2901 7d0ff22

Default : Yes

Forced : No



Audio

ID : 2

Format : AAC

Format/Info : Advanced Audio Codec

Format profile : LC

Codec ID : A_AAC-2

Duration : 1 h 7 min

Bit rate : 128 kb/s

Channel(s) : 2 channels

Channel positions : Front: L R

Sampling rate : 48.0 kHz

Frame rate : 46.875 FPS (1024 SPF)

Compression mode : Lossy

Stream size : 61.7 MiB (8%)

Language : English

Default : Yes

Forced : No



Menu

00:00:00.000 : en:Chapter 1

00:05:25.320 : en:Chapter 2

00:11:19.280 : en:Chapter 3

00:16:32.120 : en:Chapter 4

00:19:52.000 : en:Chapter 5

00:25:05.880 : en:Chapter 6

00:31:52.200 : en:Chapter 7

00:39:06.320 : en:Chapter 8

00:46:48.800 : en:Chapter 9

00:49:55.680 : en:Chapter 10

00:57:01.080 : en:Chapter 11

01:00:04.800 : en:Chapter 12

01:07:26.160 : en:Chapter 13







https://pichub.site/image/affyN

https://pichub.site/image/afMFZ

https://pichub.site/image/afadg

https://pichub.site/image/afIGI

https://pichub.site/image/afO3X

Internal Files
Monster X 2017 DVDRip AAC 2.0 x264 [MW].mkv   739.49 MB

1. udp://9.rarbg.com:2710/announce

2. udp://tracker.opentrackr.org:1337/announce

3. udp://tracker.pirateparty.gr:6969/announce

4. udp://tracker.leechers-paradise.org:6969/announce

5. udp://tracker.coppersurfer.tk:6969/announce

6. udp://tracker.zer0day.to:1337/announce

name size seeds peers added
The.Monster.Project.2017.DVDRip.x264-SPOOKS[rarbg] posted in movies > misc 604.07 MB 39 26 7 months
Monster.X.2017.DVDRip.x264-ARiES posted in movies > misc 302.03 MB 8 15 1 month
Monster.X.2017.DVDRip.x264-ARiES posted in movies > misc 297.63 MB 4 9 1 month
Monster.High.Electrified.2017.DVDRip.x264-FRAGMENT[PRiME] posted in movies > misc 546.65 MB 2 13 1 year
Monster.X.2017.DVDRip.x264-ARiES[EtMovies] posted in movies > misc 302 MB 2 11 1 month
18+ Monster X 2017 Movies DVDRip x264 AAC with Sample ☻rDX☻ posted in movies > misc 706 MB 1 16 1 month
TOPlist