Oceans 8 2018 720p HD-TS X264 MP3 LLG

Download via magnet link
Added June 13 2018 in Movies > Action
Verified
Size : 1.21 GB
Seeds : 1 , Peers : 5 updated 1 week ago (new update strongly recommended) Refresh Leechers
Hash code : 716158a96938fdbc65623dc80604f29757085282
******************************Thumbnail:**********************



SCREENSHOT



******************************Screenshots:********************



Screenshot 1



Screenshot 2



Screenshot 3



Screenshot 4



Screenshot 5



Screenshot 6



Screenshot 7



Screenshot 8



Screenshot 9



Screenshot 0



**************************************************************



Complete name : Oceans.8.2018.720p.HD-TS.X264.MP3.LLG.mp4

Format : MPEG-4

Format profile : Base Media

Codec ID : isom (isom/iso2/avc1/mp41)

File size : 1.19 GiB

Duration : 1 h 43 min

Overall bit rate : 1 637 kb/s

Writing application : Lavf57.56.101



Video

ID : 1

Format : AVC

Format/Info : Advanced Video Codec

Format profile : [email protected]

Format settings : CABAC / 4 Ref Frames

Format settings, CABAC : Yes

Format settings, RefFrames : 4 frames

Codec ID : avc1

Codec ID/Info : Advanced Video Coding

Duration : 1 h 43 min

Bit rate : 1 500 kb/s

Width : 1 280 pixels

Height : 536 pixels

Display aspect ratio : 2.40:1

Frame rate mode : Constant

Frame rate : 23.976 (23976/1000) FPS

Color space : YUV

Chroma subsampling : 4:2:0

Bit depth : 8 bits

Scan type : Progressive

Bits/(Pixel*Frame) : 0.091

Stream size : 1.09 GiB (92%)





Audio

ID : 2

Format : MPEG Audio

Format version : Version 1

Format profile : Layer 3

Format settings : Joint stereo / MS Stereo

Codec ID : mp4a-6B

Duration : 1 h 43 min

Bit rate mode : Constant

Bit rate : 128 kb/s

Channel(s) : 2 channels

Sampling rate : 44.1 kHz

Compression mode : Lossy

Stream size : 94.9 MiB (8%)

Writing library : LAME3.99.5

Default : Yes

Alternate group : 1
Internal Files
Sample.ts   20.59 MB

Oceans.8.2018.720p.HD-TS.X264.MP3.LLG.mp4   1.19 GB

1. udp://9.rarbg.com:2710/announce

2. udp://tracker.opentrackr.org:1337/announce

3. udp://tracker.pirateparty.gr:6969/announce

4. udp://tracker.leechers-paradise.org:6969/announce

5. udp://tracker.coppersurfer.tk:6969/announce

6. udp://tracker.zer0day.to:1337/announce

name size seeds peers added
Oceans 8 2018 720p HD-TS X264-CPG posted in movies > misc 2.3 GB 1941 1461 1 week
Oceans 8 2018 720p HD-TS X264 ENG LLG posted in movies > action 1.02 GB 17 8 1 week
Oceans 8 2018 720p HDTS X264 CPG posted in movies > misc 2.3 GB 12 37 1 week
Oceans 8 2018 720p HD-TS x264 AAC [MW] posted in movies > action 985.67 MB 6 16 1 week
Oceans 8 (2018 ) 720p HD-TS X264-CPG mkv [MOVCR] mp4 posted in movies > action 910.04 MB 1 6 1 week
Oceans 8 2018 720p TS HEVC x265-RMTeam posted in movies > misc 539.8 MB 0 0 1 week
TOPlist