Once Upon a Time in Venice - C'era una volta a Los Angeles (2017).720p.H264.italian.english.Ac3-5.1.sub.ita.eng.MIRCrew

Download via magnet link
Added June 13 2018 in Movies > Action
Verified
Size : 1.72 GB
Seeds : 1 , Peers : 1 updated 1 week ago (new update strongly recommended) Refresh Leechers
Hash code : 8ac6701af1313a19705aa1180f8d7e783a6ed0d3
Once Upon a Time in Venice - C'era una volta a Los Angeles (2017).720p.H264.italian.english.Ac3-5.1.sub.ita.eng.MIRCrew



SCREENSHOT

NO FOUND ONLY ORIGINAL RELEASE



SCREENSHOT



My release is always in double track audio italian and Original audio

for select it use VLC or dvd player home

not use wmp



C'era una volta a Los Angeles - Once Upon a Time in Venice (2017)



Quality MIRCrew on HD 720p da 1,7 gb



SCREENSHOT



SCREENSHOT



SCREENSHOT



Titolo originale Once Upon A Time In Venice

Lingua originale Inglese

Paese di produzione Stati Uniti

Anno 2017

Durata 94 min

Genere azione, commedia

Regia Mark Cullen, Robb Cullen

Soggetto Mark Cullen, Robb Cullen

Produttore Mark Cullen, Robb Cullen, Nicolas Chartier, Zev Foreman, Laura Ford

Casa di produzione Voltage Pictures, RLJ Entertainment

Distribuzione (Italia) Leone Film Group

Fotografia Amir M. Mokri

Montaggio Zach Staenberg, Matt Diezel

Musiche Jeff Cardoni

Scenografia Amir Mokri



SCREENSHOT



Bruce Willis: Steve Ford

Jason Momoa: Spyde

John Goodman: Dave Phillips

Thomas Middleditch: John

Famke Janssen: Katey Ford

Jessica Gomes: Nola

Adam Goldberg: Lou

Elisabeth Röhm: Anna Phillips

Stephanie Sigman: Lupe

Wood Harris: Prince

Christopher McDonald: Mr. Carter

Ken Davitian: Yuri

Victor Ortiz: Chuy



SCREENSHOT



Steve Ford è un ex poliziotto che gestisce un agenzia investigativa a Los Angeles, con l'aiuto del suo braccio destro John, vive un'esistenza godereccia, e difficilmente riesce a titare avanti con il suo lavoro; purtroppo finisce con l'immischiarsi in una situazione compromettente quando, per ripagare un debito contratto con un amico, recupera l'auto che gli era stata rubata da Spyde, il pericoloso capo di una gang.



SCREENSHOT



Steve Ford (Bruce Willis) is a down but not out L.A based Private Investigator whose professional and personal worlds collide after his loving pet Buddy is stolen by a notorious gang. A series of crazy circumstances find him doing the gang's bidding, while being chased by two vengeful Samoan brothers, a loan shark's goons, and a few other shady characters. They say a dog is a man's best friend, and Steve shows how far a man will go to be reunited with him.



SCREENSHOT



SCREENSHOT



SCREENSHOT SCREENSHOT SCREENSHOT



SCREENSHOT



[spoiler]

General

Unique ID : 243472483217429207958195682374089525484 (0xB72B18381DEFD7B444E540CEBD0148EC)

Complete name : C'era una volta a Los Angeles - Once Upon a Time in Venice (2017).720p.H264.ita.eng.sub.ita.eng-MIRCrewC'era una volta a Los Angeles - Once Upon a Time in Venice (2017).720p.H264.ita.eng.sub.ita.eng-MIRCrew.mkv

Format : Matroska

Format version : Version 2

File size : 1.72 GiB

Duration : 1h 33mn

Overall bit rate : 2 622 Kbps

Movie name : MIRCrew

Encoded date : UTC 2018-06-08 15:11:36

Writing application : Lavf54.63.100

Writing library : Lavf54.63.100



Video

ID : 1

Format : AVC

Format/Info : Advanced Video Codec

Format profile : [email protected]

Format settings, CABAC : Yes

Format settings, ReFrames : 2 frames

Codec ID : V_MPEG4/ISO/AVC

Duration : 1h 33mn

Bit rate : 1 802 Kbps

Nominal bit rate : 1 900 Kbps

Width : 1 264 pixels

Height : 528 pixels

Display aspect ratio : 2.40:1

Frame rate mode : Variable

Frame rate : 24.000 fps

Color space : YUV

Chroma subsampling : 4:2:0

Bit depth : 8 bits

Scan type : Progressive

Bits/(Pixel*Frame) : 0.113

Stream size : 1.18 GiB (69%)

Writing library : x264 core 130 r2273

Encoding settings : cabac=1 / ref=2 / deblock=1:0:0 / analyse=0x1:0x131 / me=hex / subme=7 / psy=1 / psy_rd=1.00:0.00 / mixed_ref=0 / me_range=16 / chroma_me=1 / trellis=1 / 8x8dct=0 / cqm=0 / deadzone=21,11 / fast_pskip=1 / chroma_qp_offset=-2 / threads=3 / lookahead_threads=1 / sliced_threads=0 / nr=0 / decimate=1 / interlaced=0 / bluray_compat=0 / constrained_intra=0 / bframes=3 / b_pyramid=0 / b_adapt=1 / b_bias=0 / direct=3 / weightb=1 / open_gop=0 / weightp=2 / keyint=240 / keyint_min=24 / scenecut=40 / intra_refresh=0 / rc_lookahead=40 / rc=abr / mbtree=1 / bitrate=1900 / ratetol=1.0 / qcomp=0.60 / qpmin=10 / qpmax=69 / qpstep=4 / vbv_maxrate=24000 / vbv_bufsize=24000 / nal_hrd=none / ip_ratio=1.40 / aq=1:1.00

Language : Italian

Default : Yes

Forced : No

DURATION : 01:33:53.417000000

NUMBER_OF_FRAMES : 135202

NUMBER_OF_BYTES : 7177576003

_STATISTICS_WRITING_APP : mkvmerge v7.6.0 ('Garden of Dreams') 64bit built on Feb 8 2015 15:12:28

_STATISTICS_WRITING_DATE_UTC : 2018-05-31 13:47:41

_STATISTICS_TAGS : BPS DURATION NUMBER_OF_FRAMES NUMBER_OF_BYTES



Audio #1

ID : 2

Format : AC-3

Format/Info : Audio Coding 3

Mode extension : CM (complete main)

Codec ID : A_AC3

Duration : 1h 33mn

Bit rate mode : Constant

Bit rate : 384 Kbps

Channel(s) : 6 channels

Channel positions : Front: L C R, Side: L R, LFE

Sampling rate : 48.0 KHz

Bit depth : 16 bits

Compression mode : Lossy

Delay relative to video : 1mn 5s

Stream size : 258 MiB (15%)

Title : ITA

Language : Italian

Default : Yes

Forced : Yes

DURATION : 01:33:53.376000000

NUMBER_OF_FRAMES : 176043

NUMBER_OF_BYTES : 270402048

_STATISTICS_WRITING_APP : mkvmerge v7.6.0 ('Garden of Dreams') 64bit built on Feb 8 2015 15:12:28

_STATISTICS_WRITING_DATE_UTC : 2018-05-31 13:47:41

_STATISTICS_TAGS : BPS DURATION NUMBER_OF_FRAMES NUMBER_OF_BYTES



Audio #2

ID : 3

Format : AC-3

Format/Info : Audio Coding 3

Mode extension : CM (complete main)

Codec ID : A_AC3

Duration : 1h 33mn

Bit rate mode : Constant

Bit rate : 384 Kbps

Channel(s) : 6 channels

Channel positions : Front: L C R, Side: L R, LFE

Sampling rate : 48.0 KHz

Bit depth : 16 bits

Compression mode : Lossy

Delay relative to video : 1mn 5s

Stream size : 258 MiB (15%)

Title : ENG

Language : English

Default : No

Forced : No

DURATION : 01:33:53.366000000

NUMBER_OF_FRAMES : 528128

NUMBER_OF_BYTES : 1062593536

_STATISTICS_WRITING_APP : mkvmerge v7.6.0 ('Garden of Dreams') 64bit built on Feb 8 2015 15:12:28

_STATISTICS_WRITING_DATE_UTC : 2018-05-31 13:47:41

_STATISTICS_TAGS : BPS DURATION NUMBER_OF_FRAMES NUMBER_OF_BYTES



Menu

00:00:00.000 : :00:00:00.000

00:18:30.833 : :00:18:30.833

00:31:41.875 : :00:31:41.875

00:46:30.333 : :00:46:30.333

01:03:02.500 : :01:03:02.500

01:18:44.792 : :01:18:44.792







[/spoiler]


Internal Files
C'era una volta a Los Angeles - Once Upon a Time in Venice (2017).720p.H264.ita.eng.sub.ita.eng-MIRCrew.eng.srt   100.34 KB

C'era una volta a Los Angeles - Once Upon a Time in Venice (2017).720p.H264.ita.eng.sub.ita.eng-MIRCrew.ita.srt   84.23 KB

C'era una volta a Los Angeles - Once Upon a Time in Venice (2017).720p.H264.ita.eng.sub.ita.eng-MIRCrew.mkv   1.72 GB

C'era una volta a Los Angeles - Once Upon a Time in Venice (2017).720p.H264.ita.eng.sub.ita.eng-MIRCrew.srt   533 Byte

1. udp://9.rarbg.com:2710/announce

2. udp://tracker.opentrackr.org:1337/announce

3. udp://tracker.pirateparty.gr:6969/announce

4. udp://tracker.leechers-paradise.org:6969/announce

5. udp://tracker.coppersurfer.tk:6969/announce

6. udp://tracker.zer0day.to:1337/announce

name size seeds peers added
Once Upon a Time S05E13 HDTV x264-FLEET[rartv] posted in series > misc 282.07 MB 6087 1624 2 years
Once Upon a Time S05E20 HDTV x264-BRISK[rartv] posted in series > misc 270.07 MB 3498 798 2 years
Once Upon a Time in Venice (2017) [720p] [YTS AG] posted in movies > action 695.15 MB 2851 3246 11 months
Once Upon a Time S05E22 HDTV x264-KILLERS[rartv] posted in series > misc 290.07 MB 2522 1615 2 years
Once.Upon.a.Time.S05E21.HDTV.x264-LOL[ettv] posted in series > misc 296.5 MB 2449 1155 2 years
Once Upon a Time in Venice (2017) [1080p] [YTS AG] posted in movies > comedy 1.43 GB 2324 2382 11 months
Once.Upon.a.Time.S05E18.HDTV.x264-LOL[ettv] posted in series > misc 314.5 MB 1919 1015 2 years
Once.Upon.a.Time.S05E22.HDTV.x264-KILLERS[ettv] posted in series > misc 290.5 MB 1684 924 2 years
Once.Upon.a.Time.S05E13.WEB-DL.x264-FUM[ettv] posted in series > misc 288.5 MB 1619 471 2 years
Once.Upon.a.Time.S05E12.WEB-DL.x264-FUM[ettv] posted in series > misc 270.5 MB 1550 211 2 years
TOPlist