Oceans 8 2018 720p HD-TS x264 AAC [MW]

Download via magnet link
Added June 13 2018 in Movies > Action
Verified
Size : 985.67 MB
Seeds : 6 , Peers : 16 updated 1 week ago (new update strongly recommended) Refresh Leechers
Hash code : f7cca3bbba7de00b8f8d0aa24520937e3fc9be79


SCREENSHOT





General

Format : Matroska

Format version : Version 4 / Version 2

File size : 986 MiB

Duration : 1 h 43 min

Overall bit rate : 1 333 kb/s



Video

ID : 1

Format : AVC

Format/Info : Advanced Video Codec

Format profile : [email protected]

Format settings : CABAC / 4 Ref Frames

Format settings, CABAC : Yes

Format settings, RefFrames : 4 frames

Codec ID : V_MPEG4/ISO/AVC

Duration : 1 h 43 min

Bit rate : 1 200 kb/s

Width : 1 280 pixels

Height : 536 pixels

Display aspect ratio : 2.40:1

Frame rate mode : Constant

Frame rate : 30.000 FPS

Color space : YUV

Chroma subsampling : 4:2:0

Bit depth : 8 bits

Scan type : Progressive

Bits/(Pixel*Frame) : 0.058

Stream size : 889 MiB (90%)

Writing library : x264 core 155 r2901 7d0ff22

Default : Yes

Forced : No



Audio

ID : 2

Format : AAC

Format/Info : Advanced Audio Codec

Format profile : LC

Codec ID : A_AAC-2

Duration : 1 h 43 min

Bit rate : 129 kb/s

Channel(s) : 2 channels

Channel positions : Front: L R

Sampling rate : 48.0 kHz

Frame rate : 46.875 FPS (1024 SPF)

Compression mode : Lossy

Stream size : 95.2 MiB (10%)

Language : English

Default : Yes

Forced : No











https://pichub.site/image/Y7RDh

https://pichub.site/image/Y7Dnr

https://pichub.site/image/Y77tQ

https://pichub.site/image/Y7dYk

https://pichub.site/image/Y7cjd



Internal Files
Oceans 8 2018 720p HD-TS x264 AAC [MW].mkv   985.67 MB

1. udp://9.rarbg.com:2710/announce

2. udp://tracker.opentrackr.org:1337/announce

3. udp://tracker.pirateparty.gr:6969/announce

4. udp://tracker.leechers-paradise.org:6969/announce

5. udp://tracker.coppersurfer.tk:6969/announce

6. udp://tracker.zer0day.to:1337/announce

name size seeds peers added
Oceans 8 2018 720p HD-TS X264-CPG posted in movies > misc 2.3 GB 1941 1461 1 week
Oceans 8 2018 720p HD-TS X264 ENG LLG posted in movies > action 1.02 GB 17 8 1 week
Oceans 8 2018 720p HDTS X264 CPG posted in movies > misc 2.3 GB 12 37 1 week
Oceans 8 (2018 ) 720p HD-TS X264-CPG mkv [MOVCR] mp4 posted in movies > action 910.04 MB 1 6 1 week
Oceans 8 2018 720p HD-TS X264 MP3 LLG posted in movies > action 1.21 GB 1 5 1 week
Oceans 8 2018 720p TS HEVC x265-RMTeam posted in movies > misc 539.8 MB 0 0 1 week
TOPlist