The BFG 2016 720p BluRay x264 Dual Audio [Hindi DD 5 1 - English 2 0] ESub [MW]

Download via magnet link
Added June 13 2018 in Movies > Adventure
Verified
Size : 1.16 GB
Seeds : 3 , Peers : 10 updated 1 week ago (new update strongly recommended) Refresh Leechers
Hash code : 330590cc84912410a829f8b4342de27bda673348


SCREENSHOT





General

Format : Matroska

Format version : Version 4 / Version 2

File size : 1.16 GiB

Duration : 1 h 57 min

Overall bit rate : 1 413 kb/s



Video

ID : 1

Format : AVC

Format/Info : Advanced Video Codec

Format profile : [email protected]

Format settings : CABAC / 4 Ref Frames

Format settings, CABAC : Yes

Format settings, RefFrames : 4 frames

Codec ID : V_MPEG4/ISO/AVC

Duration : 1 h 57 min

Bit rate : 900 kb/s

Width : 1 280 pixels

Height : 534 pixels

Display aspect ratio : 2.40:1

Original display aspect ratio : 2.40:1

Frame rate mode : Constant

Frame rate : 23.976 FPS

Color space : YUV

Chroma subsampling : 4:2:0

Bit depth : 8 bits

Scan type : Progressive

Bits/(Pixel*Frame) : 0.055

Stream size : 754 MiB (64%)

Writing library : x264 core 148

Default : Yes

Forced : No



Audio #1

ID : 2

Format : AC-3

Format/Info : Audio Coding 3

Codec ID : A_AC3

Duration : 1 h 57 min

Bit rate mode : Constant

Bit rate : 384 kb/s

Channel(s) : 6 channels

Channel positions : Front: L C R, Side: L R, LFE

Sampling rate : 48.0 kHz

Frame rate : 31.250 FPS (1536 SPF)

Bit depth : 16 bits

Compression mode : Lossy

Stream size : 322 MiB (27%)

Title : Hindi Org Untouched Audio DD 5.1 384 Kbps

Language : Hindi

Service kind : Complete Main

Default : Yes

Forced : No



Audio #2

ID : 3

Format : AAC

Format/Info : Advanced Audio Codec

Format profile : LC

Codec ID : A_AAC-2

Duration : 1 h 57 min

Bit rate : 127 kb/s

Channel(s) : 2 channels

Channel positions : Front: L R

Sampling rate : 48.0 kHz

Frame rate : 46.875 FPS (1024 SPF)

Compression mode : Lossy

Stream size : 106 MiB (9%)

Language : English

Default : No

Forced : No



Text

ID : 4

Format : UTF-8

Codec ID : S_TEXT/UTF8

Codec ID/Info : UTF-8 Plain Text

Duration : 1 h 45 min

Bit rate : 32 b/s

Count of elements : 927

Stream size : 24.8 KiB (0%)

Default : Yes

Forced : No











https://pichub.site/image/YdenD

https://pichub.site/image/YdqMZ

https://pichub.site/image/Y74tg

https://pichub.site/image/Y7JeX

https://pichub.site/image/Y7f2I

Internal Files
The BFG 2016 720p BluRay x264 Dual Audio [Hindi DD 5.1 - English 2.0] ESub [MW].mkv   1.16 GB

1. udp://9.rarbg.com:2710/announce

2. udp://tracker.opentrackr.org:1337/announce

3. udp://tracker.pirateparty.gr:6969/announce

4. udp://tracker.leechers-paradise.org:6969/announce

5. udp://tracker.coppersurfer.tk:6969/announce

6. udp://tracker.zer0day.to:1337/announce

name size seeds peers added
My.Neighbers.Wife.2016.Uncut.720p.HD.avi.torrent posted in movies > misc 3.36 GB 24733 21896 11 months
The Lost City of Z (2016) [720p] [YTS AG] posted in movies > action 1.02 GB 7599 6253 11 months
the-osiris-child-2016-720p-brrip-x264-yify-t134381 posted in movies > misc 728.15 MB 2898 2401 9 months
Colossal (2016) [720p] [YTS AG] posted in movies > action 797.65 MB 2823 1730 11 months
Sleight (2016) [720p] [YTS AG] posted in movies > action 659.15 MB 2004 1091 11 months
Dark Crimes (2016) [WEBRip] [720p] [YTS AM] posted in movies > drama 793.49 MB 1838 1766 1 month
The Bad Batch (2016) [720p] [YTS AG] posted in movies > sci-fi 884.65 MB 1789 1527 9 months
The Belko Experiment (2016) [720p] [YTS AG] posted in movies > horror 655.15 MB 1753 1967 1 year
The Mountain II (2016) [WEBRip] [720p] [YTS AM] posted in movies > drama 1.11 GB 1408 952 3 weeks
Wazir (2016) [720p] [YTS AG] posted in movies > action 769.15 MB 1395 1216 11 months
TOPlist