7 Days in Entebbe 2018 1080p WEB-DL DD 5 1 x264 [MW]

Download via magnet link
Added June 13 2018 in Movies > Drama
Verified
Size : 2.1 GB
Seeds : 3 , Peers : 7 updated 1 week ago (new update strongly recommended) Refresh Leechers
Hash code : 417cd31c0a62ad55db5c805e4bcfa7fcc8c585a0


SCREENSHOT





General

Format : Matroska

Format version : Version 4 / Version 2

File size : 2.10 GiB

Duration : 1 h 47 min

Overall bit rate : 2 811 kb/s



Video

ID : 1

Format : AVC

Format/Info : Advanced Video Codec

Format profile : [email protected]

Format settings : CABAC / 4 Ref Frames

Format settings, CABAC : Yes

Format settings, RefFrames : 4 frames

Codec ID : V_MPEG4/ISO/AVC

Duration : 1 h 47 min

Bit rate : 2 500 kb/s

Width : 1 920 pixels

Height : 800 pixels

Display aspect ratio : 2.40:1

Frame rate mode : Constant

Frame rate : 23.976 (24000/1001) FPS

Color space : YUV

Chroma subsampling : 4:2:0

Bit depth : 8 bits

Scan type : Progressive

Bits/(Pixel*Frame) : 0.068

Stream size : 1.81 GiB (86%)

Writing library : x264 core 155 r2901 7d0ff22

Default : Yes

Forced : No



Audio

ID : 3

Format : AC-3

Format/Info : Audio Coding 3

Codec ID : A_AC3

Duration : 1 h 47 min

Bit rate mode : Constant

Bit rate : 384 kb/s

Channel(s) : 6 channels

Channel positions : Front: L C R, Side: L R, LFE

Sampling rate : 48.0 kHz

Frame rate : 31.250 FPS (1536 SPF)

Bit depth : 16 bits

Compression mode : Lossy

Stream size : 294 MiB (14%)

Language : English

Service kind : Complete Main

Default : Yes

Forced : No



Text

ID : 2

Format : UTF-8

Codec ID : S_TEXT/UTF8

Codec ID/Info : UTF-8 Plain Text

Duration : 1 h 33 min

Bit rate : 48 b/s

Count of elements : 1124

Stream size : 33.5 KiB (0%)

Language : English

Default : Yes

Forced : No



Menu

00:00:00.000 : en:1

00:02:33.528 : en:2

00:06:18.628 : en:3

00:12:01.221 : en:4

00:19:01.390 : en:5

00:24:12.534 : en:6

00:28:11.565 : en:7

00:32:44.379 : en:8

00:38:11.372 : en:9

00:44:33.504 : en:10

00:49:32.428 : en:11

00:53:06.975 : en:12

00:58:23.667 : en:13

01:04:05.508 : en:14

01:08:08.585 : en:15

01:16:14.945 : en:16

01:21:12.576 : en:17

01:28:58.959 : en:18

01:37:32.805 : en:19

01:39:10.862 : en:20















https://pichub.site/image/YdsMt

https://pichub.site/image/Yd1ey

https://pichub.site/image/YdZpp

https://pichub.site/image/YdHcb

https://pichub.site/image/YdTv0



Internal Files
7 Days in Entebbe 2018 1080p WEB-DL DD 5.1 x264 [MW].mkv   2.1 GB

1. udp://9.rarbg.com:2710/announce

2. udp://tracker.opentrackr.org:1337/announce

3. udp://tracker.pirateparty.gr:6969/announce

4. udp://tracker.leechers-paradise.org:6969/announce

5. udp://tracker.coppersurfer.tk:6969/announce

6. udp://tracker.zer0day.to:1337/announce

TOPlist