102 Not Out 2018 Hindi PRE x264 AAC LLG

Download via magnet link
Added June 12 2018 in Movies > Comedy
Verified
Size : 700.96 MB
Seeds : 2 , Peers : 2 updated 1 week ago (new update strongly recommended) Refresh Leechers
Hash code : 45a35b9fd87f67911d4f474be7a22046c99ae0b3
******************************Thumbnail:**********************



SCREENSHOT



******************************Screenshots:********************



Screenshot 1



Screenshot 2



Screenshot 3



Screenshot 4



Screenshot 5



Screenshot 6



Screenshot 7



Screenshot 8



Screenshot 9



Screenshot 0



**************************************************************



Complete name : 102.Not.Out.2018.Hindi.PRE.x264.AAC.LLG.mp4

Format : MPEG-4

Format profile : Base Media

Codec ID : isom (isom/iso2/avc1/mp41)

File size : 692 MiB

Duration : 1 h 37 min

Overall bit rate : 989 kb/s

Writing application : Lavf57.56.101



Video

ID : 1

Format : AVC

Format/Info : Advanced Video Codec

Format profile : [email protected]

Format settings : CABAC / 4 Ref Frames

Format settings, CABAC : Yes

Format settings, RefFrames : 4 frames

Codec ID : avc1

Codec ID/Info : Advanced Video Coding

Duration : 1 h 37 min

Bit rate : 879 kb/s

Width : 648 pixels

Height : 288 pixels

Display aspect ratio : 2.25:1

Frame rate mode : Variable

Frame rate : 25.000 FPS

Minimum frame rate : 15.861 FPS

Maximum frame rate : 25.000 FPS

Color space : YUV

Chroma subsampling : 4:2:0

Bit depth : 8 bits

Scan type : Progressive

Bits/(Pixel*Frame) : 0.188

Stream size : 641 MiB (93%)



Audio

ID : 2

Format : AAC

Format/Info : Advanced Audio Codec

Format profile : LC

Codec ID : mp4a-40-2

Duration : 1 h 37 min

Bit rate mode : Constant

Bit rate : 64.5 kb/s

Channel(s) : 2 channels

Channel positions : Front: L R

Sampling rate : 44.1 kHz

Frame rate : 43.066 FPS (1024 SPF)

Compression mode : Lossy

Stream size : 45.1 MiB (7%)

Language : Hindi

Default : Yes

Alternate group : 1
Internal Files
Sample.mp4   9.25 MB

102.Not.Out.2018.Hindi.PRE.x264.AAC.LLG.mp4   691.71 MB

1. udp://9.rarbg.com:2710/announce

2. udp://tracker.opentrackr.org:1337/announce

3. udp://tracker.pirateparty.gr:6969/announce

4. udp://tracker.leechers-paradise.org:6969/announce

5. udp://tracker.coppersurfer.tk:6969/announce

6. udp://tracker.zer0day.to:1337/announce

name size seeds peers added
Blockers (2018) [WEBRip] [720p] [YTS AM] posted in movies > comedy 861.94 MB 3971 4558 2 days
Blockers (2018) [WEBRip] [1080p] [YTS AM] posted in movies > comedy 1.62 GB 2695 2329 2 days
Isle of Dogs (2018) [WEBRip] [1080p] [YTS AM] posted in movies > animation 1.55 GB 1733 1588 2 days
Isle of Dogs (2018) [WEBRip] [720p] [YTS AM] posted in movies > adventure 818.71 MB 1486 1535 2 days
Spinning Man (2018) [BluRay] [720p] [YTS AM] posted in movies > drama 860.04 MB 706 564 21 hours
Spinning Man (2018) [BluRay] [1080p] [YTS AM] posted in movies > mystery 1.61 GB 671 469 21 hours
Frat Pack (2018) [WEBRip] [720p] [YTS AM] posted in movies > comedy 773.67 MB 595 651 2 days
Frat Pack (2018) [WEBRip] [1080p] [YTS AM] posted in movies > comedy 1.46 GB 439 393 2 days
[2018/06/22] [Queen Bee] 一求乳魂 番外編[ごばん] posted in porn > misc 211.5 MB 198 98 2 days
The.Daily.Show.2018.06.20.Dan.Reynolds.EXTENDED.WEB.x264-TBS[eztv] posted in series > misc 273.1 MB 180 189 2 days
TOPlist