Alien Code 2018 1080p WEB-DL DD 5 1 x264 [MW]

Download via magnet link
Added June 12 2018 in Movies > Sci-Fi
Verified
Size : 2.02 GB
Seeds : 1 , Peers : 7 updated 1 week ago (new update strongly recommended) Refresh Leechers
Hash code : a71748b5aac2aa1b61e4d26eb62899516216d646


SCREENSHOT





General

Format : Matroska

Format version : Version 4 / Version 2

File size : 2.02 GiB

Duration : 1 h 41 min

Overall bit rate : 2 846 kb/s



Video

ID : 1

Format : AVC

Format/Info : Advanced Video Codec

Format profile : [email protected]

Format settings : CABAC / 4 Ref Frames

Format settings, CABAC : Yes

Format settings, RefFrames : 4 frames

Codec ID : V_MPEG4/ISO/AVC

Duration : 1 h 41 min

Bit rate : 2 500 kb/s

Width : 1 920 pixels

Height : 800 pixels

Display aspect ratio : 2.40:1

Frame rate mode : Constant

Frame rate : 23.976 (24000/1001) FPS

Color space : YUV

Chroma subsampling : 4:2:0

Bit depth : 8 bits

Scan type : Progressive

Bits/(Pixel*Frame) : 0.068

Stream size : 1.74 GiB (86%)

Writing library : x264 core 155 r2901 7d0ff22

Default : Yes

Forced : No



Audio

ID : 2

Format : AC-3

Format/Info : Audio Coding 3

Codec ID : A_AC3

Duration : 1 h 41 min

Bit rate mode : Constant

Bit rate : 384 kb/s

Channel(s) : 6 channels

Channel positions : Front: L C R, Side: L R, LFE

Sampling rate : 48.0 kHz

Frame rate : 31.250 FPS (1536 SPF)

Bit depth : 16 bits

Compression mode : Lossy

Stream size : 279 MiB (13%)

Service kind : Complete Main

Default : Yes

Forced : No









https://pichub.site/image/MF8EV

https://pichub.site/image/MFAmT

https://pichub.site/image/MFBsN

https://pichub.site/image/MFmzZ

https://pichub.site/image/MFu5g

Internal Files
Alien Code 2018 1080p WEB-DL DD 5.1 x264 [MW].mkv   2.02 GB

1. udp://9.rarbg.com:2710/announce

2. udp://tracker.opentrackr.org:1337/announce

3. udp://tracker.pirateparty.gr:6969/announce

4. udp://tracker.leechers-paradise.org:6969/announce

5. udp://tracker.coppersurfer.tk:6969/announce

6. udp://tracker.zer0day.to:1337/announce

No related torrents found!

TOPlist