The 40 Year Old Virgin UNRATED 2005 720p BluRay x264 Dual Audio [Hindi DD 5 1 - English 2 0] ESub [MW]

Download via magnet link
Added June 11 2018 in Movies > Comedy
Verified
Size : 1012.25 MB
Seeds : 2 , Peers : 15 updated 1 week ago (new update strongly recommended) Refresh Leechers
Hash code : fb7dd247eed6ba3b1650997845f795ca038085dd




SCREENSHOT





General

Format : Matroska

Format version : Version 4 / Version 2

File size : 1 012 MiB

Duration : 2 h 12 min

Overall bit rate : 1 068 kb/s



Video

ID : 1

Format : AVC

Format/Info : Advanced Video Codec

Format profile : [email protected]

Format settings : CABAC / 6 Ref Frames

Format settings, CABAC : Yes

Format settings, RefFrames : 6 frames

Codec ID : V_MPEG4/ISO/AVC

Duration : 2 h 12 min

Bit rate : 748 kb/s

Width : 1 280 pixels

Height : 688 pixels

Display aspect ratio : 1.85:1

Frame rate mode : Constant

Frame rate : 23.976 (24000/1001) FPS

Color space : YUV

Chroma subsampling : 4:2:0

Bit depth : 8 bits

Scan type : Progressive

Bits/(Pixel*Frame) : 0.035

Stream size : 709 MiB (70%)

Writing library : x264 core 120 r2164 da19765

Default : Yes

Forced : No



Audio #1

ID : 2

Format : AC-3

Format/Info : Audio Coding 3

Codec ID : A_AC3

Duration : 2 h 12 min

Bit rate mode : Constant

Bit rate : 224 kb/s

Channel(s) : 6 channels

Channel positions : Front: L C R, Side: L R, LFE

Sampling rate : 48.0 kHz

Frame rate : 31.250 FPS (1536 SPF)

Bit depth : 16 bits

Compression mode : Lossy

Stream size : 212 MiB (21%)

Language : Hindi

Service kind : Complete Main

Default : Yes

Forced : No



Audio #2

ID : 3

Format : AAC

Format/Info : Advanced Audio Codec

Format profile : LC

Codec ID : A_AAC-2

Duration : 2 h 12 min

Bit rate : 93.9 kb/s

Channel(s) : 2 channels

Channel positions : Front: L R

Sampling rate : 44.1 kHz

Frame rate : 43.066 FPS (1024 SPF)

Compression mode : Lossy

Stream size : 89.0 MiB (9%)

Language : English

Default : No

Forced : No



Text

ID : 4

Format : UTF-8

Codec ID : S_TEXT/UTF8

Codec ID/Info : UTF-8 Plain Text

Duration : 2 h 8 min

Bit rate : 94 b/s

Count of elements : 2547

Stream size : 89.1 KiB (0%)

Default : Yes

Forced : No











https://pichub.site/image/MTnST

https://pichub.site/image/MTsgN

https://pichub.site/image/MT3nD

https://pichub.site/image/MT1MZ

https://pichub.site/image/MTH2I



Internal Files
The 40 Year Old Virgin UNRATED 2005 720p BluRay x264 Dual Audio [Hindi DD 5.1 - English 2.0] ESub [MW].mkv   1012.25 MB

1. udp://9.rarbg.com:2710/announce

2. udp://tracker.opentrackr.org:1337/announce

3. udp://tracker.pirateparty.gr:6969/announce

4. udp://tracker.leechers-paradise.org:6969/announce

5. udp://tracker.coppersurfer.tk:6969/announce

6. udp://tracker.zer0day.to:1337/announce

TOPlist