The Layover 2017 1080p BluRay x264 DTS [MW]

Download via magnet link
Added June 10 2018 in Movies > Comedy
Verified
Size : 2.72 GB
Seeds : 3 , Peers : 0 updated 1 week ago (new update strongly recommended) Refresh Leechers
Hash code : 524942293f0de816007d8e7bcd767c835922b19b




SCREENSHOT



General

Format : Matroska

Format version : Version 4 / Version 2

File size : 2.72 GiB

Duration : 1 h 28 min

Overall bit rate : 4 432 kb/s



Video

ID : 1

Format : AVC

Format/Info : Advanced Video Codec

Format profile : [email protected]

Format settings : CABAC / 4 Ref Frames

Format settings, CABAC : Yes

Format settings, RefFrames : 4 frames

Codec ID : V_MPEG4/ISO/AVC

Duration : 1 h 28 min

Bit rate : 3 000 kb/s

Width : 1 920 pixels

Height : 800 pixels

Display aspect ratio : 2.40:1

Frame rate mode : Constant

Frame rate : 24.000 FPS

Color space : YUV

Chroma subsampling : 4:2:0

Bit depth : 8 bits

Scan type : Progressive

Bits/(Pixel*Frame) : 0.081

Stream size : 1.79 GiB (66%)

Writing library : x264 core 155 r2901 7d0ff22

Default : Yes

Forced : No



Audio

ID : 2

Format : DTS

Format/Info : Digital Theater Systems

Codec ID : A_DTS

Duration : 1 h 28 min

Bit rate mode : Constant

Bit rate : 1 509 kb/s

Channel(s) : 6 channels

Channel positions : Front: L C R, Side: L R, LFE

Sampling rate : 48.0 kHz

Frame rate : 93.750 FPS (512 SPF)

Bit depth : 24 bits

Compression mode : Lossy

Stream size : 950 MiB (34%)

Language : English

Default : Yes

Forced : No



Text

ID : 3

Format : VobSub

Muxing mode : zlib

Codec ID : S_VOBSUB

Codec ID/Info : Picture based subtitle format used on DVDs

Duration : 1 h 20 min

Bit rate : 7 666 b/s

Count of elements : 1414

Stream size : 4.44 MiB (0%)

Language : English

Default : Yes

Forced : No



Menu

00:00:00.000 : en:00:00:00.000

00:05:32.167 : en:00:05:32.167

00:10:41.583 : en:00:10:41.583

00:15:18.583 : en:00:15:18.583

00:20:45.208 : en:00:20:45.208

00:26:04.000 : en:00:26:04.000

00:30:36.542 : en:00:30:36.542

00:35:53.417 : en:00:35:53.417

00:41:36.083 : en:00:41:36.083

00:46:42.167 : en:00:46:42.167

00:49:53.750 : en:00:49:53.750

00:55:15.417 : en:00:55:15.417

00:59:45.542 : en:00:59:45.542

01:03:46.750 : en:01:03:46.750

01:07:44.417 : en:01:07:44.417

01:14:05.542 : en:01:14:05.542

01:17:58.000 : en:01:17:58.000

01:21:50.542 : en:01:21:50.542











https://pichub.site/image/MZCAI

https://pichub.site/image/MZhlX

https://pichub.site/image/MZt48

https://pichub.site/image/MZzCJ

https://pichub.site/image/MZ8L5



Internal Files
The Layover 2017 1080p BluRay x264 DTS [MW].mkv   2.72 GB

1. udp://9.rarbg.com:2710/announce

2. udp://tracker.opentrackr.org:1337/announce

3. udp://tracker.pirateparty.gr:6969/announce

4. udp://tracker.leechers-paradise.org:6969/announce

5. udp://tracker.coppersurfer.tk:6969/announce

6. udp://tracker.zer0day.to:1337/announce

name size seeds peers added
The Layover (2017) [BluRay] [1080p] [YTS AM] posted in movies > comedy 1.4 GB 1539 562 2 weeks
The Layover 2017 1080p WEB-DL x264 DD 5 1-M2Tv posted in movies > comedy 2.18 GB 1 1 9 months
TOPlist