Euphoria 2018 1080p WEB-DL DD 5 1 x264 [MW]

Download via magnet link
Added June 7 2018 in Movies > Adventure
Verified
Size : 1.91 GB
Seeds : 2 , Peers : 2 updated 2 weeks ago (new update strongly recommended) Refresh Leechers
Hash code : c463341781a8f489d943744012cbdc528cdd9d86


SCREENSHOT





General

Format : Matroska

Format version : Version 4 / Version 2

File size : 1.91 GiB

Duration : 1 h 37 min

Overall bit rate : 2 807 kb/s



Video

ID : 1

Format : AVC

Format/Info : Advanced Video Codec

Format profile : [email protected]

Format settings : CABAC / 4 Ref Frames

Format settings, CABAC : Yes

Format settings, RefFrames : 4 frames

Codec ID : V_MPEG4/ISO/AVC

Duration : 1 h 37 min

Bit rate : 2 500 kb/s

Width : 1 920 pixels

Height : 802 pixels

Display aspect ratio : 2.40:1

Frame rate mode : Constant

Frame rate : 24.000 FPS

Color space : YUV

Chroma subsampling : 4:2:0

Bit depth : 8 bits

Scan type : Progressive

Bits/(Pixel*Frame) : 0.068

Stream size : 1.65 GiB (86%)

Writing library : x264 core 155 r2901 7d0ff22

Default : Yes

Forced : No



Audio

ID : 2

Format : AC-3

Format/Info : Audio Coding 3

Codec ID : A_AC3

Duration : 1 h 37 min

Bit rate mode : Constant

Bit rate : 384 kb/s

Channel(s) : 6 channels

Channel positions : Front: L C R, Side: L R, LFE

Sampling rate : 48.0 kHz

Frame rate : 31.250 FPS (1536 SPF)

Bit depth : 16 bits

Compression mode : Lossy

Stream size : 268 MiB (14%)

Language : English

Service kind : Complete Main

Default : Yes

Forced : No



Menu

00:00:00.000 : en:1

00:15:00.042 : en:2

00:30:00.042 : en:3

00:45:00.042 : en:4

01:00:00.000 : en:5

01:15:00.042 : en:6

01:31:40.000 : en:7













https://pichub.site/image/MPWvk

https://pichub.site/image/MPqgd

https://pichub.site/image/MPjSv

https://pichub.site/image/MX4X9

https://pichub.site/image/MXMtR

https://pichub.site/image/MXJMu



Internal Files
Euphoria 2018 1080p WEB-DL DD 5.1 x264 [MW].mkv   1.91 GB

1. udp://9.rarbg.com:2710/announce

2. udp://tracker.opentrackr.org:1337/announce

3. udp://tracker.pirateparty.gr:6969/announce

4. udp://tracker.leechers-paradise.org:6969/announce

5. udp://tracker.coppersurfer.tk:6969/announce

6. udp://tracker.zer0day.to:1337/announce

name size seeds peers added
Euphoria.2018.1080p.WEB-DL.H264.AC3-EVO posted in movies > misc 3.36 GB 2 6 2 weeks
Euphoria.2018.1080p.WEB-DL.H264.AC3-EVO posted in movies > misc 3.4 GB 1 1 2 weeks
TOPlist