The Mercy 2018 1080p BluRay x264 DTS [MW]

Download via magnet link
Added June 7 2018 in Movies > Adventure
Verified
Size : 2.56 GB
Seeds : 2 , Peers : 0 updated 2 weeks ago (new update strongly recommended) Refresh Leechers
Hash code : a1709c618a2f5a4e0f70e69b4ab0858007802bea


SCREENSHOT





General

Format : Matroska

Format version : Version 4 / Version 2

File size : 2.56 GiB

Duration : 1 h 41 min

Overall bit rate : 3 604 kb/s



Video

ID : 1

Format : AVC

Format/Info : Advanced Video Codec

Format profile : [email protected]

Format settings : CABAC / 4 Ref Frames

Format settings, CABAC : Yes

Format settings, RefFrames : 4 frames

Codec ID : V_MPEG4/ISO/AVC

Duration : 1 h 41 min

Bit rate : 2 833 kb/s

Nominal bit rate : 3 000 kb/s

Width : 1 920 pixels

Height : 804 pixels

Display aspect ratio : 2.40:1

Frame rate mode : Constant

Frame rate : 24.000 FPS

Color space : YUV

Chroma subsampling : 4:2:0

Bit depth : 8 bits

Scan type : Progressive

Bits/(Pixel*Frame) : 0.076

Stream size : 2.01 GiB (79%)

Writing library : x264 core 155 r2901 7d0ff22

Default : Yes

Forced : No



Audio

ID : 2

Format : DTS

Format/Info : Digital Theater Systems

Codec ID : A_DTS

Duration : 1 h 41 min

Bit rate mode : Constant

Bit rate : 768 kb/s

Channel(s) : 6 channels

Channel positions : Front: L C R, Side: L R, LFE

Sampling rate : 48.0 kHz

Frame rate : 93.750 FPS (512 SPF)

Bit depth : 24 bits

Compression mode : Lossy

Stream size : 559 MiB (21%)

Language : English

Default : Yes

Forced : No



Text #1

ID : 3

Format : UTF-8

Codec ID : S_TEXT/UTF8

Codec ID/Info : UTF-8 Plain Text

Duration : 1 h 34 min

Bit rate : 61 b/s

Count of elements : 1028

Stream size : 42.3 KiB (0%)

Language : English

Default : No

Forced : No



Text #2

ID : 4

Format : UTF-8

Codec ID : S_TEXT/UTF8

Codec ID/Info : UTF-8 Plain Text

Duration : 1 h 34 min

Bit rate : 65 b/s

Count of elements : 1121

Stream size : 45.4 KiB (0%)

Title : SDH

Language : English

Default : No

Forced : No



Menu

00:00:00.000 : en:00:00:00.000

00:07:56.750 : en:00:07:56.750

00:16:37.958 : en:00:16:37.958

00:24:15.958 : en:00:24:15.958

00:32:03.833 : en:00:32:03.833

00:41:44.625 : en:00:41:44.500

00:47:50.333 : en:00:47:50.333

00:57:03.333 : en:00:57:03.333

01:05:05.000 : en:01:05:05.000

01:14:32.583 : en:01:14:32.500

01:22:28.750 : en:01:22:28.750

01:31:10.375 : en:01:31:10.375













https://pichub.site/image/MXaeB

https://pichub.site/image/MXRv6

https://pichub.site/image/MXSHt

https://pichub.site/image/MXED4

https://pichub.site/image/MXdgp

https://pichub.site/image/MX7ny

Internal Files
The Mercy 2018 1080p BluRay x264 DTS [MW].mkv   2.56 GB

1. udp://9.rarbg.com:2710/announce

2. udp://tracker.opentrackr.org:1337/announce

3. udp://tracker.pirateparty.gr:6969/announce

4. udp://tracker.leechers-paradise.org:6969/announce

5. udp://tracker.coppersurfer.tk:6969/announce

6. udp://tracker.zer0day.to:1337/announce

name size seeds peers added
The Mercy (2018) [BluRay] [1080p] [YTS AM] posted in movies > drama 1.64 GB 940 447 2 weeks
The.Mercy.2018.1080p.BluRay.x264.AC3-RiPRG posted in movies > misc 1.8 GB 2 11 2 weeks
TOPlist