The Broken Key (2017) 720p H264 ita eng sub NUita-MIRCrew

Download via magnet link
Added June 7 2018 in Movies > Sci-Fi
Verified
Size : 2.36 GB
Seeds : 1 , Peers : 0 updated 2 weeks ago (new update strongly recommended) Refresh Leechers
Hash code : 88aee9931a903632444f3aa19d8e35a40c28365d
The Broken Key (2017).720p.H264.italian.English.Ac3-5.1.sub.ita.MIRCrew



SCREENSHOT

NO FOUND ONLY ORIGINAL RELEASE



SCREENSHOT



My release is always in double track audio italian and Original audio

for select it use VLC or dvd player home

not use wmp



The Broken Key (2017)



Quality MIRCrew on HD 720p da 2,4 gb



SCREENSHOT



SCREENSHOT



SCREENSHOT



Paese di produzione Italia

Anno 2017

Durata 120 min

Rapporto 2,39 : 1

Genere fantascienza, thriller

Regia Louis Nero

Soggetto Louis Nero

Sceneggiatura Louis Nero



SCREENSHOT



Andrea Cocco: Arthur J. Adams

Diana Dell'Erba: Sarah Eve

Marco Deambrogio: James Mind

Walter Lippa: Taron Iron

Rutger Hauer: Adrian Moonlight

Michael Madsen: Tullio De Marco

Christopher Lambert: conte Rosebud

Geraldine Chaplin: anziana Mole

Franco Nero: Hiram Abif

William Baldwin: frate Hugo

Maria De Medeiros: Althea

Kabir Bedi: Fahrid Al Kamar

Marc Fiorini: Niccolò Machiavelli

Giovanni Pilone: anziano Cairo

Ariadna Romero: Nora Segni

Marco Triggiani: Arthur bambino

Valentina Paoleschi: Lucy

Anna Cuculo: Mary

Francesco Lodato: Moratorium

Toni Pandolfo: maresciallo

Claude Lebas: agente di polizia



SCREENSHOT



In un futuro prossimo, per effetto di una rigida legge sull'eco-sostenibilità, la carta è diventata un bene raro; stampare è quindi un reato. Tutte le informazioni fluiscono attraverso un'unica rete di dati gestita dalla "Grande Z", la Zimurgh Corporation.



SCREENSHOT



In a near future, due to the effects of an uncompromising law on the eco-sustainability of supports, paper has become a rare item, a luxury possession, controlled by the "Big Z": Zimurgh Corporation



SCREENSHOT



SCREENSHOT



SCREENSHOT SCREENSHOT SCREENSHOT SCREENSHOT SCREENSHOT SCREENSHOT



SCREENSHOT



[spoiler]

General

Unique ID : 196379686664507159269998857454407926968 (0x93BD5A163A16AC14BC1922994BB044B8)

Complete name : The Broken Key (2017).720p.H264.ita.eng.sub.NUita-MIRCrewThe Broken Key (2017).720p.H264.ita.eng.sub.ita-MIRCrew.mkv

Format : Matroska

Format version : Version 2

File size : 2.36 GiB

Duration : 2h 5mn

Overall bit rate : 2 699 Kbps

Movie name : MIRCrew

Encoded date : UTC 2018-06-01 18:48:59

Writing application : Lavf54.63.100

Writing library : Lavf54.63.100



Video

ID : 1

Format : AVC

Format/Info : Advanced Video Codec

Format profile : [email protected]

Format settings, CABAC : Yes

Format settings, ReFrames : 2 frames

Codec ID : V_MPEG4/ISO/AVC

Duration : 2h 5mn

Bit rate : 1 800 Kbps

Width : 1 280 pixels

Height : 528 pixels

Display aspect ratio : 2.40:1

Frame rate mode : Variable

Frame rate : 23.976 fps

Color space : YUV

Chroma subsampling : 4:2:0

Bit depth : 8 bits

Scan type : Progressive

Bits/(Pixel*Frame) : 0.111

Stream size : 1.53 GiB (65%)

Writing library : x264 core 130 r2273

Encoding settings : cabac=1 / ref=2 / deblock=1:0:0 / analyse=0x1:0x131 / me=hex / subme=7 / psy=1 / psy_rd=1.00:0.00 / mixed_ref=0 / me_range=16 / chroma_me=1 / trellis=1 / 8x8dct=0 / cqm=0 / deadzone=21,11 / fast_pskip=1 / chroma_qp_offset=-2 / threads=3 / lookahead_threads=1 / sliced_threads=0 / nr=0 / decimate=1 / interlaced=0 / bluray_compat=0 / constrained_intra=0 / bframes=3 / b_pyramid=0 / b_adapt=1 / b_bias=0 / direct=3 / weightb=1 / open_gop=0 / weightp=2 / keyint=230 / keyint_min=23 / scenecut=40 / intra_refresh=0 / rc_lookahead=40 / rc=abr / mbtree=1 / bitrate=1800 / ratetol=1.0 / qcomp=0.60 / qpmin=10 / qpmax=69 / qpstep=4 / vbv_maxrate=24000 / vbv_bufsize=24000 / nal_hrd=none / ip_ratio=1.40 / aq=1:1.00

Language : Italian

Default : Yes

Forced : No

DURATION : 02:05:01.619000000

NUMBER_OF_FRAMES : 179859

NUMBER_OF_BYTES : 9317829588

_STATISTICS_WRITING_APP : mkvmerge v9.5.0 ('Quiet Fire') 64bit

_STATISTICS_WRITING_DATE_UTC : 2018-05-19 12:34:28

_STATISTICS_TAGS : BPS DURATION NUMBER_OF_FRAMES NUMBER_OF_BYTES



Audio #1

ID : 2

Format : AC-3

Format/Info : Audio Coding 3

Mode extension : CM (complete main)

Codec ID : A_AC3

Duration : 2h 5mn

Bit rate mode : Constant

Bit rate : 448 Kbps

Channel(s) : 6 channels

Channel positions : Front: L C R, Side: L R, LFE

Sampling rate : 48.0 KHz

Bit depth : 16 bits

Compression mode : Lossy

Delay relative to video : 1mn 5s

Stream size : 401 MiB (17%)

Title : AC3 ITA

Language : Italian

Default : No

Forced : No

DURATION : 02:05:01.632000000

NUMBER_OF_FRAMES : 234426

NUMBER_OF_BYTES : 600130560

_STATISTICS_WRITING_APP : mkvmerge v9.5.0 ('Quiet Fire') 64bit

_STATISTICS_WRITING_DATE_UTC : 2018-05-19 12:34:28

_STATISTICS_TAGS : BPS DURATION NUMBER_OF_FRAMES NUMBER_OF_BYTES



Audio #2

ID : 3

Format : AC-3

Format/Info : Audio Coding 3

Mode extension : CM (complete main)

Codec ID : A_AC3

Duration : 2h 5mn

Bit rate mode : Constant

Bit rate : 448 Kbps

Channel(s) : 6 channels

Channel positions : Front: L C R, Side: L R, LFE

Sampling rate : 48.0 KHz

Bit depth : 16 bits

Compression mode : Lossy

Delay relative to video : 1mn 5s

Stream size : 401 MiB (17%)

Title : AC3 ENG

Language : English

Default : No

Forced : No

DURATION : 02:05:01.632000000

NUMBER_OF_FRAMES : 234426

NUMBER_OF_BYTES : 600130560

_STATISTICS_WRITING_APP : mkvmerge v9.5.0 ('Quiet Fire') 64bit

_STATISTICS_WRITING_DATE_UTC : 2018-05-19 12:34:28

_STATISTICS_TAGS : BPS DURATION NUMBER_OF_FRAMES NUMBER_OF_BYTES



Menu

00:00:00.000 : :00:00:00.000

00:07:05.342 : :00:07:05.342

00:14:28.201 : :00:14:28.201

00:20:13.838 : :00:20:13.838

00:29:27.099 : :00:29:27.099

00:39:02.590 : :00:39:02.590

00:50:56.804 : :00:50:56.804

00:59:52.756 : :00:59:52.756

01:08:53.129 : :01:08:53.129

01:16:19.950 : :01:16:19.950

01:25:27.706 : :01:25:27.706

01:35:23.259 : :01:35:23.259

01:45:16.300 : :01:45:16:300

01:55:01.150 : :01:55:01:150





[/spoiler]


Internal Files
The Broken Key (2017).720p.H264.ita.eng.sub.ita-MIRCrew.mkv   2.36 GB

The Broken Key (2017).720p.H264.ita.eng.sub.ita-MIRCrew.NUita.srt   86.13 KB

1. udp://9.rarbg.com:2710/announce

2. udp://tracker.opentrackr.org:1337/announce

3. udp://tracker.pirateparty.gr:6969/announce

4. udp://tracker.leechers-paradise.org:6969/announce

5. udp://tracker.coppersurfer.tk:6969/announce

6. udp://tracker.zer0day.to:1337/announce

TOPlist