Sherlock Gnomes 2018 1080p BluRay x264 DTS [MW]

Download via magnet link
Added June 5 2018 in Movies > Animation
Verified
Size : 2.71 GB
Seeds : 2 , Peers : 2 updated 2 weeks ago (new update strongly recommended) Refresh Leechers
Hash code : ae9e851a6434d7f3268baaa5b7dfd81ace4067ca


SCREENSHOT





General

Format : Matroska

Format version : Version 4 / Version 2

File size : 2.71 GiB

Duration : 1 h 26 min

Overall bit rate : 4 491 kb/s



Video

ID : 1

Format : AVC

Format/Info : Advanced Video Codec

Format profile : [email protected]

Format settings : CABAC / 4 Ref Frames

Format settings, CABAC : Yes

Format settings, RefFrames : 4 frames

Codec ID : V_MPEG4/ISO/AVC

Duration : 1 h 26 min

Bit rate : 3 000 kb/s

Width : 1 920 pixels

Height : 804 pixels

Display aspect ratio : 2.40:1

Frame rate mode : Constant

Frame rate : 23.976 (24000/1001) FPS

Color space : YUV

Chroma subsampling : 4:2:0

Bit depth : 8 bits

Scan type : Progressive

Bits/(Pixel*Frame) : 0.081

Stream size : 1.79 GiB (66%)

Writing library : x264 core 155 r2893 b00bcaf

Default : Yes

Forced : No



Audio

ID : 2

Format : DTS

Format/Info : Digital Theater Systems

Codec ID : A_DTS

Duration : 1 h 26 min

Bit rate mode : Constant

Bit rate : 1 509 kb/s

Channel(s) : 6 channels

Channel positions : Front: L C R, Side: L R, LFE

Sampling rate : 48.0 kHz

Frame rate : 93.750 FPS (512 SPF)

Bit depth : 24 bits

Compression mode : Lossy

Stream size : 932 MiB (34%)

Language : English

Default : Yes

Forced : No



Text #1

ID : 3

Format : VobSub

Muxing mode : zlib

Codec ID : S_VOBSUB

Codec ID/Info : Picture based subtitle format used on DVDs

Duration : 1 h 24 min

Bit rate : 6 612 b/s

Count of elements : 1128

Stream size : 4.02 MiB (0%)

Language : English

Default : Yes

Forced : No



Text #2

ID : 4

Format : VobSub

Muxing mode : zlib

Codec ID : S_VOBSUB

Codec ID/Info : Picture based subtitle format used on DVDs

Duration : 1 h 24 min

Bit rate : 7 742 b/s

Count of elements : 1415

Stream size : 4.71 MiB (0%)

Language : English

Default : No

Forced : No



Menu

00:00:00.000 : en:00:00:00.000

00:05:36.127 : en:00:05:36.127

00:10:50.650 : en:00:10:50.650

00:16:40.166 : en:00:16:40.166

00:24:05.944 : en:00:24:05.944

00:29:44.074 : en:00:29:44.074

00:35:39.512 : en:00:35:39.512

00:40:52.909 : en:00:40:52.909

00:45:41.530 : en:00:45:41.530

00:52:31.982 : en:00:52:31.982

00:58:29.756 : en:00:58:29.756

01:04:58.520 : en:01:04:58.520

01:10:40.069 : en:01:10:40.069

01:16:03.058 : en:01:16:03.058

01:17:55.212 : en:01:17:55.212













https://pichub.site/image/M6dFt

https://pichub.site/image/M6Vd4

https://pichub.site/image/M6cup

https://pichub.site/image/M6k3y

https://pichub.site/image/M6yab

https://pichub.site/image/M6C80



Internal Files
Sherlock Gnomes 2018 1080p BluRay x264 DTS [MW].mkv   2.71 GB

1. udp://9.rarbg.com:2710/announce

2. udp://tracker.opentrackr.org:1337/announce

3. udp://tracker.pirateparty.gr:6969/announce

4. udp://tracker.leechers-paradise.org:6969/announce

5. udp://tracker.coppersurfer.tk:6969/announce

6. udp://tracker.zer0day.to:1337/announce

TOPlist