The Kissing Booth (2018).H264.italian.english.Ac3-5.1.sub.ita.MIRCrew

DOWNLOAD TORRENT DOWNLOAD
Download via magnet link
Added May 23 2018 in Movies > Comedy
Verified
Size : 1.6 GB
Seeds : 3 , Peers : 4 updated 3 weeks ago (new update strongly recommended) Refresh Leechers
Hash code : 6642e1de837350084f211fae3a70ba94fbab905c
The Kissing Booth (2018).H264.italian.english.Ac3-5.1.sub.ita.MIRCrew



SCREENSHOT

NO FOUND ONLY ORIGINAL RELEASE



SCREENSHOT





My release is always in double track audio italian and Original audio

for select it use VLC or dvd player home

not use wmp



The Kissing Booth (2018)



SCREENSHOT



SCREENSHOT



SCREENSHOT



The Kissing Booth: un film originale Netflix

Anno:2018

Durata:1h 45min

Genere: Commedia

Regista: Vince Marcello



SCREENSHOT



Joey King, Joel Courtney, Jacob Elordi



SCREENSHOT



Il primo bacio di Elle porta a un amore proibito con il ragazzo più affascinante del liceo e mette a rischio il rapporto della giovane con il suo migliore amico.



SCREENSHOT



When Elle Evans (Joey King), a pretty, late-bloomer who's never-been-kissed, decides to run a kissing booth at her high school's Spring Carnival, she unexpectedly finds herself locking lips with her secret crush- the ultimate bad boy, Noah Flynn (Jacob Elordi). Sparks fly, but there's one little problem: Noah just happens to be the brother of her best friend, Lee, (Joel Courtney) and is absolutely off limits according to the rules of their friendship pact



SCREENSHOT



SCREENSHOT

SCREENSHOT

SCREENSHOT

SCREENSHOT



SCREENSHOT



[spoiler]

General

Unique ID : 175875885544062798265922993040765242957 (0x845076A46DEC0CEC8C0C74F3403C4E4D)

Complete name : The Kissing Booth (2018).H264.ita.eng.sub.ita - MIRCrewThe Kissing Booth (2018).H264.ita.eng.sub.ita - MIRCrew.mkv

Format : Matroska

Format version : Version 2

File size : 1.60 GiB

Duration : 1h 45mn

Overall bit rate : 2 186 Kbps

Movie name : MIRCrew

Encoded date : UTC 2018-05-11 12:20:50

Writing application : mkvmerge v5.4.0 ('Piper') built on Mar 10 2012 13:34:39

Writing library : Lavf54.63.100



Video

ID : 1

Format : AVC

Format/Info : Advanced Video Codec

Format profile : [email protected]

Format settings, CABAC : Yes

Format settings, ReFrames : 2 frames

Codec ID : V_MPEG4/ISO/AVC

Duration : 1h 45mn

Bit rate : 1 300 Kbps

Width : 720 pixels

Height : 320 pixels

Display aspect ratio : 2.2:1

Original display aspect ratio : 2.2:1

Frame rate mode : Variable

Frame rate : 23.976 fps

Color space : YUV

Chroma subsampling : 4:2:0

Bit depth : 8 bits

Scan type : Progressive

Bits/(Pixel*Frame) : 0.235

Stream size : 937 MiB (57%)

Writing library : x264 core 130 r2273

Encoding settings : cabac=1 / ref=2 / deblock=1:0:0 / analyse=0x1:0x131 / me=hex / subme=7 / psy=1 / psy_rd=1.00:0.00 / mixed_ref=0 / me_range=16 / chroma_me=1 / trellis=1 / 8x8dct=0 / cqm=0 / deadzone=21,11 / fast_pskip=1 / chroma_qp_offset=-2 / threads=3 / lookahead_threads=1 / sliced_threads=0 / nr=0 / decimate=1 / interlaced=0 / bluray_compat=0 / constrained_intra=0 / bframes=3 / b_pyramid=0 / b_adapt=1 / b_bias=0 / direct=3 / weightb=1 / open_gop=0 / weightp=2 / keyint=230 / keyint_min=23 / scenecut=40 / intra_refresh=0 / rc_lookahead=40 / rc=abr / mbtree=1 / bitrate=1300 / ratetol=1.0 / qcomp=0.60 / qpmin=10 / qpmax=69 / qpstep=4 / vbv_maxrate=24000 / vbv_bufsize=24000 / nal_hrd=none / ip_ratio=1.40 / aq=1:1.00

Language : Italian

Default : Yes

Forced : No

DURATION : 01:45:03.047000000

NUMBER_OF_FRAMES : 151122

NUMBER_OF_BYTES : 7533766957

_STATISTICS_WRITING_APP : mkvmerge v7.4.0 ('Circles') 32bit built on Dec 12 2014 12:10:09

_STATISTICS_WRITING_DATE_UTC : 2018-05-11 12:20:50

_STATISTICS_TAGS : BPS DURATION NUMBER_OF_FRAMES NUMBER_OF_BYTES



Audio #1

ID : 2

Format : AC-3

Format/Info : Audio Coding 3

Mode extension : CM (complete main)

Codec ID : A_AC3

Duration : 1h 45mn

Bit rate mode : Constant

Bit rate : 448 Kbps

Channel(s) : 6 channels

Channel positions : Front: L C R, Side: L R, LFE

Sampling rate : 48.0 KHz

Bit depth : 16 bits

Compression mode : Lossy

Delay relative to video : -5ms

Stream size : 337 MiB (20%)

Title : Ita Ac3 5.1

Language : Italian

Default : Yes

Forced : No

DURATION : 01:45:03.072000000

NUMBER_OF_FRAMES : 196971

NUMBER_OF_BYTES : 352972032

_STATISTICS_WRITING_APP : mkvmerge v7.4.0 ('Circles') 32bit built on Dec 12 2014 12:10:09

_STATISTICS_WRITING_DATE_UTC : 2018-05-11 12:20:50

_STATISTICS_TAGS : BPS DURATION NUMBER_OF_FRAMES NUMBER_OF_BYTES



Audio #2

ID : 3

Format : AC-3

Format/Info : Audio Coding 3

Mode extension : CM (complete main)

Codec ID : A_AC3

Duration : 1h 45mn

Bit rate mode : Constant

Bit rate : 448 Kbps

Channel(s) : 6 channels

Channel positions : Front: L C R, Side: L R, LFE

Sampling rate : 48.0 KHz

Bit depth : 16 bits

Compression mode : Lossy

Delay relative to video : -5ms

Stream size : 337 MiB (20%)

Title : eng Ac3 5.1

Language : English

Default : No

Forced : No

DURATION : 01:45:03.008000000

NUMBER_OF_FRAMES : 196969

NUMBER_OF_BYTES : 302544384

_STATISTICS_WRITING_APP : mkvmerge v7.4.0 ('Circles') 32bit built on Dec 12 2014 12:10:09

_STATISTICS_WRITING_DATE_UTC : 2018-05-11 12:20:50

_STATISTICS_TAGS : BPS DURATION NUMBER_OF_FRAMES NUMBER_OF_BYTES







[/spoiler]


Internal Files
MIRCrew-ilCorSaRoNeRo.txt   53 Byte

The Kissing Booth (2018).H264.ita.eng.sub.ita - MIRCrew.ita.srt   97.9 KB

The Kissing Booth (2018).H264.ita.eng.sub.ita - MIRCrew.mkv   1.6 GB

The Kissing Booth (2018).H264.ita.eng.sub.ita - MIRCrew.srt   2.07 KB

1. udp://9.rarbg.com:2710/announce

2. udp://tracker.opentrackr.org:1337/announce

3. udp://tracker.pirateparty.gr:6969/announce

4. udp://tracker.leechers-paradise.org:6969/announce

5. udp://tracker.coppersurfer.tk:6969/announce

6. udp://tracker.zer0day.to:1337/announce

No related torrents found!

TOPlist