18+ Red Sparrow 2018 720p BluRay x264 Hindi Audio LLG

DOWNLOAD TORRENT DOWNLOAD
Download via magnet link
Added May 17 2018 in Movies > Drama
Verified
Size : 1.26 GB
Seeds : 0 , Peers : 1 updated 1 week ago (new update strongly recommended) Refresh Leechers
Hash code : a02c03542c7598baea3d626727d3e2348b0585a0
SCREENSHOT



******************************Thumbnail:**********************



SCREENSHOT



******************************Screenshots:********************



Screenshot 1



Screenshot 2



Screenshot 3



Screenshot 4



Screenshot 5



Screenshot 6



Screenshot 7



Screenshot 8



Screenshot 9



Screenshot 0



**************************************************************



Complete name : 18+.Red.Sparrow.2018.720p.BluRay.x264.Hindi.Audio.LLG.mp4

Format : MPEG-4

Format profile : Base Media

Codec ID : isom (isom/iso2/avc1/mp41)

File size : 1.24 GiB

Duration : 2 h 20 min

Overall bit rate : 1 267 kb/s

Writing application : Lavf57.56.101



Video

ID : 1

Format : AVC

Format/Info : Advanced Video Codec

Format profile : [email protected]

Format settings : CABAC / 4 Ref Frames

Format settings, CABAC : Yes

Format settings, RefFrames : 4 frames

Codec ID : avc1

Codec ID/Info : Advanced Video Coding

Duration : 2 h 20 min

Bit rate : 1 200 kb/s

Width : 1 280 pixels

Height : 536 pixels

Display aspect ratio : 2.40:1

Frame rate mode : Constant

Frame rate : 23.976 (23976/1000) FPS

Color space : YUV

Chroma subsampling : 4:2:0

Bit depth : 8 bits

Scan type : Progressive

Bits/(Pixel*Frame) : 0.073

Stream size : 1.17 GiB (94%)



Audio

ID : 2

Format : AAC

Format/Info : Advanced Audio Codec

Format profile : LC

Codec ID : mp4a-40-2

Duration : 2 h 20 min

Bit rate mode : Constant

Bit rate : 64.4 kb/s

Channel(s) : 2 channels

Channel(s)_Original : 6 channels

Channel positions : Front: L C R, Side: L R, LFE

Sampling rate : 48.0 kHz

Frame rate : 46.875 FPS (1024 SPF)

Compression mode : Lossy

Stream size : 64.5 MiB (5%)

Language : Hindi

Default : Yes

Alternate group : 1

Menus : 3
Internal Files
Sample.mp4   14.16 MB

18+.Red.Sparrow.2018.720p.BluRay.x264.Hindi.Audio.LLG.mp4   1.24 GB

1. udp://9.rarbg.com:2710/announce

2. udp://tracker.opentrackr.org:1337/announce

3. udp://tracker.pirateparty.gr:6969/announce

4. udp://tracker.leechers-paradise.org:6969/announce

5. udp://tracker.coppersurfer.tk:6969/announce

6. udp://tracker.zer0day.to:1337/announce

TOPlist