LOL 2012 720p BluRay x264 Dual Audio [Hindi 2 0 - English 2 0] ESub [MW]

DOWNLOAD TORRENT DOWNLOAD
Download via magnet link
Added May 16 2018 in Movies > Comedy
Verified
Size : 738.97 MB
Seeds : 2 , Peers : 12 updated 1 week ago (new update strongly recommended) Refresh Leechers
Hash code : bc54eac2379b035f15924428c73b5d736a1c7d98


SCREENSHOT





General

Format : Matroska

Format version : Version 4 / Version 2

File size : 739 MiB

Duration : 1 h 37 min

Overall bit rate : 1 062 kb/s



Video

ID : 1

Format : AVC

Format/Info : Advanced Video Codec

Format profile : [email protected]

Format settings : CABAC / 7 Ref Frames

Format settings, CABAC : Yes

Format settings, RefFrames : 7 frames

Codec ID : V_MPEG4/ISO/AVC

Duration : 1 h 36 min

Bit rate : 841 kb/s

Width : 1 280 pixels

Height : 536 pixels

Display aspect ratio : 2.40:1

Frame rate mode : Constant

Frame rate : 23.976 (24000/1001) FPS

Color space : YUV

Chroma subsampling : 4:2:0

Bit depth : 8 bits

Scan type : Progressive

Bits/(Pixel*Frame) : 0.051

Stream size : 582 MiB (79%)

Writing library : x264 core 120 r2164 da19765

Default : Yes

Forced : No



Audio #1

ID : 2

Format : AAC

Format/Info : Advanced Audio Codec

Format profile : LC

Codec ID : A_AAC-2

Duration : 1 h 37 min

Bit rate : 128 kb/s

Channel(s) : 2 channels

Channel positions : Front: L R

Sampling rate : 48.0 kHz

Frame rate : 46.875 FPS (1024 SPF)

Compression mode : Lossy

Stream size : 88.5 MiB (12%)

Language : Hindi

Default : Yes

Forced : No



Audio #2

ID : 3

Format : AAC

Format/Info : Advanced Audio Codec

Format profile : LC

Codec ID : A_AAC-2

Duration : 1 h 37 min

Bit rate : 96.0 kb/s

Channel(s) : 2 channels

Channel positions : Front: L R

Sampling rate : 48.0 kHz

Frame rate : 46.875 FPS (1024 SPF)

Compression mode : Lossy

Stream size : 66.4 MiB (9%)

Language : English

Default : No

Forced : No



Text

ID : 4

Format : UTF-8

Codec ID : S_TEXT/UTF8

Codec ID/Info : UTF-8 Plain Text

Duration : 1 h 30 min

Bit rate : 63 b/s

Count of elements : 1233

Stream size : 41.9 KiB (0%)

Default : Yes

Forced : No











https://pichub.site/image/MhbzT

https://pichub.site/image/Mi4wZ

https://pichub.site/image/MhjqD

https://pichub.site/image/MiJFI

https://pichub.site/image/Mif0g

https://pichub.site/image/MiYEX



Internal Files
LOL 2012 720p BluRay x264 Dual Audio [Hindi 2.0 - English 2.0] ESub [MW].mkv   738.97 MB

1. udp://9.rarbg.com:2710/announce

2. udp://tracker.opentrackr.org:1337/announce

3. udp://tracker.pirateparty.gr:6969/announce

4. udp://tracker.leechers-paradise.org:6969/announce

5. udp://tracker.coppersurfer.tk:6969/announce

6. udp://tracker.zer0day.to:1337/announce

TOPlist