M I A A Greater Evil 2018 HDRip x264 AAC [MW]

DOWNLOAD TORRENT DOWNLOAD
Download via magnet link
Added May 15 2018 in Movies > Mystery
Verified
Size : 931.69 MB
Seeds : 4 , Peers : 1 updated 1 month ago (new update strongly recommended) Refresh Leechers
Hash code : 068fd4b291f9e40a1750ac4ab4b172c7aae05c8f


SCREENSHOT





General

Format : Matroska

Format version : Version 4 / Version 2

File size : 932 MiB

Duration : 1 h 26 min

Overall bit rate : 1 500 kb/s



Video

ID : 1

Format : AVC

Format/Info : Advanced Video Codec

Format profile : [email protected]

Format settings : CABAC / 4 Ref Frames

Format settings, CABAC : Yes

Format settings, RefFrames : 4 frames

Codec ID : V_MPEG4/ISO/AVC

Duration : 1 h 26 min

Bit rate : 1 400 kb/s

Width : 720 pixels

Height : 400 pixels

Display aspect ratio : 16:9

Frame rate mode : Constant

Frame rate : 23.976 (23976/1000) FPS

Color space : YUV

Chroma subsampling : 4:2:0

Bit depth : 8 bits

Scan type : Progressive

Bits/(Pixel*Frame) : 0.203

Stream size : 872 MiB (94%)

Writing library : x264 core 155 r2893 b00bcaf

Default : Yes

Forced : No



Audio

ID : 2

Format : AAC

Format/Info : Advanced Audio Codec

Format profile : HE-AAC / LC

Format settings : Explicit

Codec ID : A_AAC-2

Duration : 1 h 26 min

Bit rate : 96.0 kb/s

Channel(s) : 2 channels

Channel positions : Front: L R

Sampling rate : 48.0 kHz / 24.0 kHz

Frame rate : 23.438 FPS (1024 SPF)

Compression mode : Lossy

Stream size : 58.8 MiB (6%)

Language : English

Default : Yes

Forced : No











https://pichub.site/image/MhyMT

https://pichub.site/image/Mhh2D

https://pichub.site/image/Mh8xI

https://pichub.site/image/MhieZ

https://pichub.site/image/Mhzkg

https://pichub.site/image/MhAHX

Internal Files
M.I.A A Greater Evil 2018 HDRip x264 AAC [MW].mkv   931.69 MB

1. udp://9.rarbg.com:2710/announce

2. udp://tracker.opentrackr.org:1337/announce

3. udp://tracker.pirateparty.gr:6969/announce

4. udp://tracker.leechers-paradise.org:6969/announce

5. udp://tracker.coppersurfer.tk:6969/announce

6. udp://tracker.zer0day.to:1337/announce

No related torrents found!

TOPlist