Red Sparrow (2018) Jennifer Lawrence.720p.H264.italian.English.Ac3-5.1.sub.ita.eng.MIRCrew

DOWNLOAD TORRENT DOWNLOAD
Download via magnet link
Added May 14 2018 in Movies > Thriller
Verified
Size : 2.73 GB
Seeds : 7 , Peers : 239 updated 1 week ago (new update strongly recommended) Refresh Leechers
Hash code : 5aaedc1455d072dbf8975e7101e29c5dd983be55
Red Sparrow (2018) Jennifer Lawrence.720p.H264.italian.English.Ac3-5.1.sub.ita.eng.MIRCrew



SCREENSHOT

NO FOUND ONLY ORIGINAL RELEASE



SCREENSHOT



My release is always in double track audio italian and Original audio

for select it use VLC or dvd player home

not use wmp



Red Sparrow (2018)



Quality MIRCrew on HD 720p da 2,7 gb



SCREENSHOT



SCREENSHOT



SCREENSHOT



GENERE: Thriller, Drammatico

ANNO: 2018

REGIA: Francis Lawrence

PAESE: USA

DURATA: 139 Min



SCREENSHOT



Jennifer Lawrence, Joel Edgerton, Matthias Schoenaerts, Charlotte Rampling, Mary-Louise Parker, Ciarán Hinds, Joely Richardson, Jeremy Irons, Thekla Reuten, Douglas Hodge, Sakina Jaffrey, Sergei Polunin, Sasha Frolova, Bill Camp, Sebastian Hülk, Joel de la Fuente



SCREENSHOT



Il film diretto da Francis Lawrence, mostra la trasformazione della giovane donna interpretata dalla protagonista Jennifer Lawrence, selezionata nell'ambito di un programma segreto dopo l'incidente che ne stronca la carriera a teatro, e "addestrata per sedurre", manipolare e annientare con qualsiasi mezzo gli avversari, obiettivi indicati dal KGB. ..................



SCREENSHOT



Ballerina Dominika Egorova is recruited to 'Sparrow School,' a Russian intelligence service where she is forced to use her body as a weapon. Her first mission, targeting a C.I.A. agent, threatens to unravel the security of both nations.



SCREENSHOT



SCREENSHOT



SCREENSHOT



SCREENSHOT SCREENSHOT SCREENSHOT



SCREENSHOT



[spoiler]

General

Unique ID : 175247971691504103321258777237916856014 (0x83D7881963260487BE31F0BA44C1AECE)

Complete name : Red Sparrow (2018).720p.h264.ita.eng.sub.ita.eng - MIRCrewRed Sparrow (2018).720p.h264.ita.eng.sub.ita.eng - MIRCrew.mkv

Format : Matroska

Format version : Version 2

File size : 2.73 GiB

Duration : 2h 20mn

Overall bit rate : 2 786 Kbps

Movie name : MIRCrew

Encoded date : UTC 2018-05-14 10:38:57

Writing application : mkvmerge v5.4.0 ('Piper') built on Mar 10 2012 13:34:39

Writing library : Lavf54.63.100



Video

ID : 1

Format : AVC

Format/Info : Advanced Video Codec

Format profile : [email protected]

Format settings, CABAC : Yes

Format settings, ReFrames : 2 frames

Codec ID : V_MPEG4/ISO/AVC

Duration : 2h 20mn

Bit rate : 1 900 Kbps

Width : 1 264 pixels

Height : 528 pixels

Display aspect ratio : 2.40:1

Original display aspect ratio : 2.40:1

Frame rate mode : Variable

Frame rate : 23.976 fps

Color space : YUV

Chroma subsampling : 4:2:0

Bit depth : 8 bits

Scan type : Progressive

Bits/(Pixel*Frame) : 0.119

Stream size : 1.80 GiB (66%)

Writing library : x264 core 130 r2273

Encoding settings : cabac=1 / ref=2 / deblock=1:0:0 / analyse=0x1:0x131 / me=hex / subme=7 / psy=1 / psy_rd=1.00:0.00 / mixed_ref=0 / me_range=16 / chroma_me=1 / trellis=1 / 8x8dct=0 / cqm=0 / deadzone=21,11 / fast_pskip=1 / chroma_qp_offset=-2 / threads=3 / lookahead_threads=1 / sliced_threads=0 / nr=0 / decimate=1 / interlaced=0 / bluray_compat=0 / constrained_intra=0 / bframes=3 / b_pyramid=0 / b_adapt=1 / b_bias=0 / direct=3 / weightb=1 / open_gop=0 / weightp=2 / keyint=230 / keyint_min=23 / scenecut=40 / intra_refresh=0 / rc_lookahead=40 / rc=abr / mbtree=1 / bitrate=1900 / ratetol=1.0 / qcomp=0.60 / qpmin=10 / qpmax=69 / qpstep=4 / vbv_maxrate=24000 / vbv_bufsize=24000 / nal_hrd=none / ip_ratio=1.40 / aq=1:1.00

Language : Italian

Default : Yes

Forced : No

DURATION : 02:20:13.197000000

NUMBER_OF_FRAMES : 201715

NUMBER_OF_BYTES : 7839973153

_STATISTICS_WRITING_APP : mkvmerge v15.0.0 ('Duel with the Devil') 64-bit

_STATISTICS_WRITING_DATE_UTC : 2018-05-13 10:47:20

_STATISTICS_TAGS : BPS DURATION NUMBER_OF_FRAMES NUMBER_OF_BYTES



Audio #1

ID : 2

Format : AC-3

Format/Info : Audio Coding 3

Mode extension : CM (complete main)

Codec ID : A_AC3

Duration : 2h 20mn

Bit rate mode : Constant

Bit rate : 448 Kbps

Channel(s) : 6 channels

Channel positions : Front: L C R, Side: L R, LFE

Sampling rate : 48.0 KHz

Bit depth : 16 bits

Compression mode : Lossy

Delay relative to video : -5ms

Stream size : 449 MiB (16%)

Title : Ita Ac3 5.1

Language : Italian

Default : No

Forced : No

DURATION : 02:20:13.280000000

NUMBER_OF_FRAMES : 262915

NUMBER_OF_BYTES : 673062400

_STATISTICS_WRITING_APP : mkvmerge v15.0.0 ('Duel with the Devil') 64-bit

_STATISTICS_WRITING_DATE_UTC : 2018-05-13 10:47:20

_STATISTICS_TAGS : BPS DURATION NUMBER_OF_FRAMES NUMBER_OF_BYTES



Audio #2

ID : 3

Format : AC-3

Format/Info : Audio Coding 3

Mode extension : CM (complete main)

Codec ID : A_AC3

Duration : 2h 20mn

Bit rate mode : Constant

Bit rate : 448 Kbps

Channel(s) : 6 channels

Channel positions : Front: L C R, Side: L R, LFE

Sampling rate : 48.0 KHz

Bit depth : 16 bits

Compression mode : Lossy

Delay relative to video : -5ms

Stream size : 449 MiB (16%)

Title : Eng Ac3 5.1

Language : English

Default : No

Forced : No

DURATION : 02:20:13.248000000

NUMBER_OF_FRAMES : 788742

NUMBER_OF_BYTES : 1586949020

_STATISTICS_WRITING_APP : mkvmerge v15.0.0 ('Duel with the Devil') 64-bit

_STATISTICS_WRITING_DATE_UTC : 2018-05-13 10:47:20

_STATISTICS_TAGS : BPS DURATION NUMBER_OF_FRAMES NUMBER_OF_BYTES



Menu

00:00:00.000 : :Chapter 1

00:08:00.105 : :Chapter 2

00:11:31.983 : :Chapter 3

00:16:57.183 : :Chapter 4

00:21:09.643 : :Chapter 5

00:27:21.265 : :Chapter 6

00:33:03.356 : :Chapter 7

00:38:09.245 : :Chapter 8

00:42:29.130 : :Chapter 9

00:46:41.799 : :Chapter 10

00:54:14.334 : :Chapter 11

00:58:45.480 : :Chapter 12

01:04:55.266 : :Chapter 13

01:10:26.139 : :Chapter 14

01:16:28.250 : :Chapter 15

01:26:44.699 : :Chapter 16

01:32:06.938 : :Chapter 17

01:36:22.443 : :Chapter 18

01:41:53.149 : :Chapter 19

01:49:48.415 : :Chapter 20

01:53:45.610 : :Chapter 21

01:58:52.083 : :Chapter 22

02:07:20.132 : :Chapter 23

02:13:40.095 : :Chapter 24





[/spoiler]


Internal Files
MIRCrew-ilCorSaRoNeRo.txt   53 Byte

MIRCrew.jpg   42.42 KB

Red Sparrow (2018).720p.h264.ita.eng.sub.ita.eng - MIRCrew.eng.srt   120.75 KB

Red Sparrow (2018).720p.h264.ita.eng.sub.ita.eng - MIRCrew.forcedeng.srt   180 Byte

Red Sparrow (2018).720p.h264.ita.eng.sub.ita.eng - MIRCrew.ita.srt   102.43 KB

Red Sparrow (2018).720p.h264.ita.eng.sub.ita.eng - MIRCrew.mkv   2.73 GB

Red Sparrow (2018).720p.h264.ita.eng.sub.ita.eng - MIRCrew.srt   270 Byte

1. udp://9.rarbg.com:2710/announce

2. udp://tracker.opentrackr.org:1337/announce

3. udp://tracker.pirateparty.gr:6969/announce

4. udp://tracker.leechers-paradise.org:6969/announce

5. udp://tracker.coppersurfer.tk:6969/announce

6. udp://tracker.zer0day.to:1337/announce

No related torrents found!

TOPlist