Early Man 2018 1080p WEBRip DD 5 1 x264 [MW]

DOWNLOAD TORRENT DOWNLOAD
Download via magnet link
Added May 12 2018 in Movies > Animation
Verified
Size : 1.41 GB
Seeds : 3 , Peers : 3 updated 2 weeks ago (new update strongly recommended) Refresh Leechers
Hash code : c598237227b4bc1859f60b6bd65c9c8cc1153395




SCREENSHOT



Format : Matroska

Format version : Version 4 / Version 2

File size : 1.41 GiB

Duration : 1 h 24 min

Overall bit rate : 2 374 kb/s

Video

ID : 1

Format : AVC

Format/Info : Advanced Video Codec

Format profile : [email protected]

Format settings : CABAC / 4 Ref Frames

Format settings, CABAC : Yes

Format settings, RefFrames : 4 frames

Codec ID : V_MPEG4/ISO/AVC

Duration : 1 h 24 min

Bit rate : 2 000 kb/s

Width : 1 920 pixels

Height : 1 040 pixels

Display aspect ratio : 1.85:1

Frame rate mode : Constant

Frame rate : 29.970 (30000/1001) FPS

Color space : YUV

Chroma subsampling : 4:2:0

Bit depth : 8 bits

Scan type : Progressive

Bits/(Pixel*Frame) : 0.033

Stream size : 1.18 GiB (84%)

Writing library : x264 core 155 r2893 b00bcaf

Default : Yes

Forced : No



Audio

ID : 2

Format : AC-3

Format/Info : Audio Coding 3

Codec ID : A_AC3

Duration : 1 h 24 min

Bit rate mode : Constant

Bit rate : 384 kb/s

Channel(s) : 6 channels

Channel positions : Front: L C R, Side: L R, LFE

Sampling rate : 48.0 kHz

Frame rate : 31.250 FPS (1536 SPF)

Bit depth : 16 bits

Compression mode : Lossy

Stream size : 233 MiB (16%)

Language : English

Service kind : Complete Main

Default : Yes

Forced : No











https://pichub.site/image/Mwbzr

https://pichub.site/image/Mwe5k

https://pichub.site/image/MwjjQ

https://pichub.site/image/My4wv

https://pichub.site/image/Myf0d

https://pichub.site/image/MyJT9

Internal Files
Early Man 2018 1080p WEBRip DD 5.1 x264 [MW].mkv   1.41 GB

1. udp://9.rarbg.com:2710/announce

2. udp://tracker.opentrackr.org:1337/announce

3. udp://tracker.pirateparty.gr:6969/announce

4. udp://tracker.leechers-paradise.org:6969/announce

5. udp://tracker.coppersurfer.tk:6969/announce

6. udp://tracker.zer0day.to:1337/announce

name size seeds peers added
Early Man (2018) [WEBRip] [1080p] [YTS AM] posted in movies > animation 1.36 GB 2898 1815 2 weeks
Early Man (2018) [BluRay] [1080p] [YTS AM] posted in movies > animation 1.42 GB 1044 1183 1 week
Early.Man.2018.1080p.HDRip.X264.AC3-EVO[N1C] posted in movies > misc 2.83 GB 9 18 2 weeks
Early Man 2018 Multi BluRay 1080p x264 Atmos 7.1-DTOne posted in movies > misc 9.95 GB 4 33 5 days
Early Man 2018 1080p HDRip AAC 2 0 x264[MW] posted in movies > animation 1.26 GB 3 29 1 month
Early.Man.2018.1080p.WEBRip.DD5.1.x264-SHITBOX posted in movies > misc 2.79 GB 3 12 2 weeks
Early.Man.2018.1080p.HDRip.X264.AC3-EVO posted in movies > misc 2.83 GB 2 26 2 weeks
Early Man 2018 Multi BluRay 1080p HEVC AAC 7.1-DTOne posted in movies > misc 2.69 GB 2 4 5 days
TOPlist