Hate Story 4 2018 Hindi 720p HDRip x264 AAC { TaRa } mkv

DOWNLOAD TORRENT DOWNLOAD
Download via magnet link
Added May 12 2018 in Movies > Mystery
Verified
Size : 1.16 GB
Seeds : 0 , Peers : 3 updated 1 month ago (new update strongly recommended) Refresh Leechers
Hash code : a7a885c81b954b0d235e3b02af76e3f6134c260b


Hate Story 4 2018 Hindi 720p HDRip x264 AAC { TaRa }.mkv

SCREENSHOT

SCREENSHOT

===================================================================

General

Complete name : Hate Story 4 2018 Hindi 720p HDRip x264 AAC { TaRa }.mkv

Format : Matroska

Format version : Version 4 / Version 2

File size : 1.16 GiB

Duration : 2 h 7 min

Overall bit rate : 1 305 kb/s

===================================================================

Video

ID : 1

Format : AVC

Format/Info : Advanced Video Codec

Format profile : [email protected]

Format settings : CABAC / 5 Ref Frames

Format settings, CABAC : Yes

Format settings, ReFrames : 5 frames

Codec ID : V_MPEG4/ISO/AVC

Duration : 2 h 7 min

Bit rate : 1 152 kb/s

Width : 1 280 pixels

Height : 544 pixels

Display aspect ratio : 2.35:1

Frame rate mode : Constant

Frame rate : 30.000 FPS

Color space : YUV

Chroma subsampling : 4:2:0

Bit depth : 8 bits

Scan type : Progressive

Bits/(Pixel*Frame) : 0.055

Stream size : 1.02 GiB (88%)

Title : .....::::: TaRa :::::.....

Language : Hindi

Default : Yes

Forced : No

===================================================================

Audio

ID : 2

Format : AAC

Format/Info : Advanced Audio Codec

Format profile : LC

Codec ID : A_AAC-2

Duration : 2 h 7 min

Bit rate : 158 kb/s

Channel(s) : 2 channels

Channel positions : Front: L R

Sampling rate : 44.1 kHz

Frame rate : 43.066 FPS (1024 SPF)

Compression mode : Lossy

Stream size : 144 MiB (12%)

Title : .....::::: TaRa :::::.....

Language : Hindi

Default : Yes

Forced : No

===================================================================



SCREENSHOT

SCREENSHOT

SCREENSHOT

SCREENSHOT

SCREENSHOT

SCREENSHOT

SCREENSHOT

SCREENSHOT

SCREENSHOT

SCREENSHOT

SCREENSHOT

SCREENSHOT

SCREENSHOT



SCREENSHOT

SCREENSHOT



SCREENSHOT

SCREENSHOT

SCREENSHOT

SCREENSHOT

SCREENSHOT

SCREENSHOT



SCREENSHOT



Internal Files
www.hdsector.to.txt   639 Byte

www.hdsector.to.nfo   6.53 KB

2a8bd41e9b9c1c339504f14ce499603e.jpg   149.65 KB

28827499_195574417872506_4904348982312216173_o.jpg   151.79 KB

Hate Story 4 2018 Hindi 720p HDRip x264 AAC { TaRa }.mkv.mkv   1.16 GB

1. udp://9.rarbg.com:2710/announce

2. udp://tracker.opentrackr.org:1337/announce

3. udp://tracker.pirateparty.gr:6969/announce

4. udp://tracker.leechers-paradise.org:6969/announce

5. udp://tracker.coppersurfer.tk:6969/announce

6. udp://tracker.zer0day.to:1337/announce

TOPlist