My Little Pony: The Movie (2017).H264.italian.english.Ac3-5.1.sub.ita.MIRCrew

DOWNLOAD TORRENT DOWNLOAD
Download via magnet link
Added May 12 2018 in Movies > Animation
Verified
Size : 1.44 GB
Seeds : 2 , Peers : 17 updated 2 weeks ago (new update strongly recommended) Refresh Leechers
Hash code : a6d7cb02741f990c4a6eca1d5038e229b54bfe48
My Little Pony: The Movie (2017).H264.italian.english.Ac3-5.1.sub.ita.MIRCrew



SCREENSHOT

NO FOUND ONLY ORIGINAL RELEASE



SCREENSHOT





My release is always in double track audio italian and Original audio

for select it use VLC or dvd player home

not use wmp



My Little Pony: The Movie (2017)



SCREENSHOT





SCREENSHOT



SCREENSHOT



Titolo originale My Little Pony: The Movie

Lingua originale inglese

Paese di produzione Stati Uniti, Canada

Anno 2017

Durata 99 min

Genere fantastico, commedia, avventura, animazione, musicale

Regia Jayson Thiessen

Distribuzione (Italia) Leone Film Group, Eagle Pictures



SCREENSHOT



Doppiatori originali



Tara Strong: Princess Twilight Sparkle

Ashleigh Ball: Rainbow Dash, Applejack

Andrea Libman: Pinkie Pie, Fluttershy

Tabitha St. Germain: Rarity, Princess Luna

Nicole Oliver: Princess Celestia

Cathy Weseluck: Spike

Emily Blunt: Tempest Shadow

Michael Peña: Grubber



SCREENSHOT



I pony di Equestria si preparano per il loro primo Festival dell'Amicizia, che è supervisionato da Twilight Sparkle a Canterlot. I festeggiamenti sono interrotti dall'invasione di mostruose creature temporalesche comandate dall'unicorno Tempest Shadow, che utilizzando delle sfere magiche chiamate sfere di ossidiana, tramuta le altre principesse in pietre. Princess Celestia esorta senza successo Princess Luna a cercare aiuto a sud di Equestria.



SCREENSHOT



After a dark force conquers Canterlot, the Mane 6 embark on an unforgettable journey beyond Equestria where they meet new friends and exciting challenges on a quest to use the magic of friendship to save their homeland



SCREENSHOT



SCREENSHOT

SCREENSHOT

SCREENSHOT



SCREENSHOT



[spoiler]

General

Complete name : My Little Pony - The Movie (2017).H264.ita.eng.sub.ita - MIRCrewMy Little Pony - The Movie (2017).H264.ita.eng.sub.ita - MIRCrew.mkv

Format : Matroska

Format version : Version 2

File size : 1.44 GiB

Duration : 1h 39mn

Overall bit rate : 2 071 Kbps

Movie name : MIRCrew

Encoded date : UTC 2018-05-09 19:03:43

Writing application : Lavf54.63.100

Writing library : Lavf54.63.100



Video

ID : 1

Format : AVC

Format/Info : Advanced Video Codec

Format profile : [email protected]

Format settings, CABAC : Yes

Format settings, ReFrames : 2 frames

Codec ID : V_MPEG4/ISO/AVC

Duration : 1h 39mn

Bit rate : 1 300 Kbps

Width : 720 pixels

Height : 304 pixels

Display aspect ratio : 2.40:1

Frame rate mode : Variable

Frame rate : 24.000 fps

Color space : YUV

Chroma subsampling : 4:2:0

Bit depth : 8 bits

Scan type : Progressive

Bits/(Pixel*Frame) : 0.247

Stream size : 900 MiB (61%)

Writing library : x264 core 130 r2273

Encoding settings : cabac=1 / ref=2 / deblock=1:0:0 / analyse=0x1:0x131 / me=hex / subme=7 / psy=1 / psy_rd=1.00:0.00 / mixed_ref=0 / me_range=16 / chroma_me=1 / trellis=1 / 8x8dct=0 / cqm=0 / deadzone=21,11 / fast_pskip=1 / chroma_qp_offset=-2 / threads=3 / lookahead_threads=1 / sliced_threads=0 / nr=0 / decimate=1 / interlaced=0 / bluray_compat=0 / constrained_intra=0 / bframes=3 / b_pyramid=0 / b_adapt=1 / b_bias=0 / direct=3 / weightb=1 / open_gop=0 / weightp=2 / keyint=240 / keyint_min=24 / scenecut=40 / intra_refresh=0 / rc_lookahead=40 / rc=abr / mbtree=1 / bitrate=1300 / ratetol=1.0 / qcomp=0.60 / qpmin=10 / qpmax=69 / qpstep=4 / vbv_maxrate=24000 / vbv_bufsize=24000 / nal_hrd=none / ip_ratio=1.40 / aq=1:1.00

Language : Italian

Default : Yes

Forced : No

DURATION : 01:39:46.125000000

NUMBER_OF_FRAMES : 143667

NUMBER_OF_BYTES : 4374481813

_STATISTICS_WRITING_APP : mkvmerge v9.7.1 ('Pandemonium') 64bit

_STATISTICS_WRITING_DATE_UTC : 2018-05-04 12:44:00

_STATISTICS_TAGS : BPS DURATION NUMBER_OF_FRAMES NUMBER_OF_BYTES



Audio #1

ID : 2

Format : AC-3

Format/Info : Audio Coding 3

Mode extension : CM (complete main)

Codec ID : A_AC3

Duration : 1h 39mn

Bit rate mode : Constant

Bit rate : 384 Kbps

Channel(s) : 2 channels

Channel positions : Front: L R

Sampling rate : 48.0 KHz

Bit depth : 16 bits

Compression mode : Lossy

Delay relative to video : 1mn 5s

Stream size : 274 MiB (19%)

Language : Italian

Default : No

Forced : No

DURATION : 01:39:46.368000000

NUMBER_OF_FRAMES : 187074

NUMBER_OF_BYTES : 478909440

_STATISTICS_WRITING_APP : mkvmerge v9.7.1 ('Pandemonium') 64bit

_STATISTICS_WRITING_DATE_UTC : 2018-05-04 12:44:00

_STATISTICS_TAGS : BPS DURATION NUMBER_OF_FRAMES NUMBER_OF_BYTES



Audio #2

ID : 3

Format : AC-3

Format/Info : Audio Coding 3

Mode extension : CM (complete main)

Codec ID : A_AC3

Duration : 1h 39mn

Bit rate mode : Constant

Bit rate : 384 Kbps

Channel(s) : 6 channels

Channel positions : Front: L C R, Side: L R, LFE

Sampling rate : 48.0 KHz

Bit depth : 16 bits

Compression mode : Lossy

Delay relative to video : 1mn 5s

Stream size : 274 MiB (19%)

Language : English

Default : No

Forced : No

DURATION : 01:39:46.379000000

NUMBER_OF_FRAMES : 561223

NUMBER_OF_BYTES : 1129180744

_STATISTICS_WRITING_APP : mkvmerge v9.7.1 ('Pandemonium') 64bit

_STATISTICS_WRITING_DATE_UTC : 2018-05-04 12:44:00

_STATISTICS_TAGS : BPS DURATION NUMBER_OF_FRAMES NUMBER_OF_BYTES



Menu

00:00:00.000 : :(01)00:00:00:000

00:00:54.458 : :(02)00:00:54:458

00:13:03.000 : :(03)00:13:03:000

00:20:35.375 : :(04)00:20:35:375

00:30:11.833 : :(05)00:30:11:833

00:35:52.625 : :(06)00:35:52:625

00:46:45.458 : :(07)00:46:45:458

00:56:45.416 : :(08)00:56:45:416

01:03:40.666 : :(09)01:03:40:666

01:12:16.291 : :(10)01:12:16:291

01:18:59.750 : :(11)01:18:59:750

01:24:30.333 : :(12)01:24:30:333

01:31:13.541 : :(13)01:31:13:541





[/spoiler]


Internal Files
MIRCrew-ilCorSaRoNeRo.txt   53 Byte

My Little Pony - The Movie (2017).H264.ita.eng.sub.ita - MIRCrew.ita.srt   75.32 KB

My Little Pony - The Movie (2017).H264.ita.eng.sub.ita - MIRCrew.mkv   1.44 GB

1. udp://9.rarbg.com:2710/announce

2. udp://tracker.opentrackr.org:1337/announce

3. udp://tracker.pirateparty.gr:6969/announce

4. udp://tracker.leechers-paradise.org:6969/announce

5. udp://tracker.coppersurfer.tk:6969/announce

6. udp://tracker.zer0day.to:1337/announce

TOPlist