Isle of Dogs 2018 720p HDCAM x264 AAC [MW]

DOWNLOAD TORRENT DOWNLOAD
Download via magnet link
Added May 11 2018 in Movies > Animation
Verified
Size : 751.6 MB
Seeds : 3 , Peers : 3 updated 2 weeks ago (new update strongly recommended) Refresh Leechers
Hash code : 735899fb4c211a5271de185ddba021fcab3bf2bf


SCREENSHOT





General

Format : Matroska

Format version : Version 4 / Version 2

File size : 752 MiB

Duration : 1 h 35 min

Overall bit rate : 1 097 kb/s



Video

ID : 1

Format : AVC

Format/Info : Advanced Video Codec

Format profile : [email protected]

Format settings : CABAC / 2 Ref Frames

Format settings, CABAC : Yes

Format settings, RefFrames : 2 frames

Format settings, GOP : M=3, N=25

Muxing mode : Container [email protected]

Codec ID : V_MPEG4/ISO/AVC

Duration : 1 h 35 min

Bit rate : 1 000 kb/s

Width : 1 280 pixels

Height : 528 pixels

Display aspect ratio : 2.40:1

Frame rate mode : Constant

Frame rate : 25.000 FPS

Color space : YUV

Chroma subsampling : 4:2:0

Bit depth : 8 bits

Scan type : Progressive

Bits/(Pixel*Frame) : 0.059

Stream size : 685 MiB (91%)

Default : Yes

Forced : No



Audio

ID : 2

Format : AAC

Format/Info : Advanced Audio Codec

Format profile : HE-AAC / LC

Format settings : Explicit

Codec ID : A_AAC-2

Duration : 1 h 35 min

Bit rate : 96.0 kb/s

Channel(s) : 2 channels

Channel positions : Front: L R

Sampling rate : 44.1 kHz / 22.05 kHz

Frame rate : 21.533 FPS (1024 SPF)

Compression mode : Lossy

Stream size : 64.9 MiB (9%)

Language : English

Default : Yes

Forced : No













https://pichub.site/image/Mk46k

https://pichub.site/image/MkJ4Q

https://pichub.site/image/MkYrd

https://pichub.site/image/MkMCv

https://pichub.site/image/MkaQ9

https://pichub.site/image/MkO7u

Internal Files
Isle of Dogs 2018 720p HDCAM x264 AAC [MW].mkv   751.6 MB

1. udp://9.rarbg.com:2710/announce

2. udp://tracker.opentrackr.org:1337/announce

3. udp://tracker.pirateparty.gr:6969/announce

4. udp://tracker.leechers-paradise.org:6969/announce

5. udp://tracker.coppersurfer.tk:6969/announce

6. udp://tracker.zer0day.to:1337/announce

name size seeds peers added
Isle of Dogs 2018 720p HDCAM X264 HQMic-SugarTits posted in movies > misc 1.5 GB 12 46 2 weeks
Isle of Dogs 2018 720p HDCAM X264 HQMic-SugarTits posted in movies > misc 1.5 GB 9 32 2 weeks
Isle of Dogs (2018) 720p HDCAM x264 ACC by Full4movies posted in movies > misc 790.5 MB 2 2 2 weeks
Isle of Dogs (2018) 720p HDCAM x264 AAC 800MB [MRbuZ] posted in movies > misc 790.5 MB 1 2 2 weeks
Isle of Dogs 2018 720p HDCAM X264 LLG posted in movies > animation 1.11 GB 0 1 2 weeks
TOPlist